All Things to All Men (2013) 720p BDRip Audio Inglés [Subt. Esp] (Drama. Crimen)

Maestro Revolver

Administrador
Registro
9 Ago 2012
Mensajes
3.157
Reacciones (ptje)
54.925


All-Things-To-All-Men.jpg




FichaTecnica.jpg


TÍTULO ORIGINAL: The Deadly Game (All Things to All Men)
AÑO: 2013
DURACIÓN: 81 min.
PAÍS: Reino Unido
DIRECTOR: George Isaac
GUIÓN: George Isaac
REPARTO: Gabriel Byrne, Rufus Sewell, Toby Stephens, Elsa Pataky, James Frain, Julian Sands
PRODUCTORA: Cipher Films
GÉNERO: Drama | Crimen
imdb-logo.png
: http://www.imdb.com/title/tt2095568/




Sinopsis.jpg


Gira en torno a un criminal llamado Riley, que se verá atrapado entre el particular juego del gato y el ratón al que juegan los jefes respectivos de la policía y el crimen organizado de Londres.




Trailer.jpg






Capturas.jpg


1.jpg


2.jpg


3.jpg


4.jpg


5.jpg


6.jpg


La pelicula NO tiene ninguna marca... solo colocamos el nombre de esta web en las capturas




MediaInfo.jpg


Código:
General
Format                                   : Matroska
Format version                           : Version 2
File size                                : 2.98 GiB
Duration                                 : 1h 25mn
Overall bit rate                         : 5 021 Kbps
Movie name                               : www.club-hd.com
Encoded date                             : UTC 2013-12-13 22:37:43
Writing application                      : mkvmerge v5.7.0 ('The Whirlwind') built on Jul  8 2012 20:08:51
Writing library                          : libebml v1.2.3 + libmatroska v1.3.0

Video
ID                                       : 1
Format                                   : AVC
Format/Info                              : Advanced Video Codec
Format profile                           : [email protected]
Format settings, CABAC                   : Yes
Format settings, ReFrames                : 11 frames
Codec ID                                 : V_MPEG4/ISO/AVC
Duration                                 : 1h 25mn
Bit rate                                 : 4 391 Kbps
Width                                    : 1 280 pixels
Height                                   : 544 pixels
Display aspect ratio                     : 2.35:1
Frame rate mode                          : Constant
Frame rate                               : 23.976 fps
Color space                              : YUV
Chroma subsampling                       : 4:2:0
Bit depth                                : 8 bits
Scan type                                : Progressive
Bits/(Pixel*Frame)                       : 0.263
Stream size                              : 2.54 GiB (85%)
Title                                    : www.club-hd.com
Writing library                          : x264 core 138 r2356 a1d3d17
Language                                 : English
Default                                  : Yes
Forced                                   : No

Audio
ID                                       : 2
Format                                   : AC-3
Format/Info                              : Audio Coding 3
Mode extension                           : CM (complete main)
Format settings, Endianness              : Big
Codec ID                                 : A_AC3
Duration                                 : 1h 25mn
Bit rate mode                            : Constant
Bit rate                                 : 640 Kbps
Channel(s)                               : 6 channels
Channel positions                        : Front: L C R, Side: L R, LFE
Sampling rate                            : 48.0 KHz
Bit depth                                : 16 bits
Compression mode                         : Lossy
Stream size                              : 389 MiB (13%)
Title                                    : www.club-hd.com
Language                                 : English
Default                                  : Yes
Forced                                   : No

Text
ID                                       : 3
Format                                   : UTF-8
Codec ID                                 : S_TEXT/UTF8
Codec ID/Info                            : UTF-8 Plain Text
Title                                    : www.club-hd.com
Language                                 : Spanish
Default                                  : Yes
Forced                                   : No

Menu
00:00:00.000                             : en:00:00:00.000
00:05:40.090                             : en:00:05:40.090
00:11:38.781                             : en:00:11:38.781
00:15:45.027                             : en:00:15:45.027
00:20:17.174                             : en:00:20:17.174
00:25:21.520                             : en:00:25:21.520
00:29:31.728                             : en:00:29:31.728
00:36:23.390                             : en:00:36:23.390
00:42:04.564                             : en:00:42:04.564
00:47:42.777                             : en:00:47:42.777
00:50:18.182                             : en:00:50:18.182
00:53:57.568                             : en:00:53:57.568
01:00:24.454                             : en:01:00:24.454
01:04:50.220                             : en:01:04:50.220
01:08:05.248                             : en:01:08:05.248
01:11:26.532                             : en:01:11:26.532




Descarga.jpg



MEGA.jpg

Tenemos TODO el material de Club-HD disponible por Mega, enlaces 100% activos y online hasta la fecha

Llévate tus cuentas Mega PRO III gratis con tu membresía VIP!
Todos los posts vivos con links de Mega.
Todo el material de Club-HD desbloqueado y sin publicidad.

Obtén más información sobre nuestras Membresías VIP



UPLOADED_BANNER.png

Para ver este contenido oculto, debes dar click en el botón"Like", o cualquiera de las otras reacciones:

Me Gusta Me Gusta, Me Encanta Me Encanta, Jaja Jaja, Wow Wow, Triste Triste, Molesto Molesto

 
Última edición por un moderador:
Interesante... Muchas gracias Revolver :aplausos: Creo que elegiste la buena l0l Saludos bye
 
Y esta de donde salió???....no la conocía. Veremos veremos.Desc_g_
Chas Gracias!Tb_up3
 
Gracias por el aporte, se ve interesante.
 
otra película que tiene muy buena pinta ! aunque honestamente no había escuchado de ella asi que con mas razón la vere
 
Volver