Along Came Polly (2004) 720p BDRip Dual Latino-Inglés [Subt. Esp] (Romance. Comedia)

Maestro Revolver

Administrador
Registro
9 Ago 2012
Mensajes
3.157
Reacciones (ptje)
55.041


Along-Came-Polly.jpg




FichaTecnica.jpg


TÍTULO ORIGINAL: Along Came Polly
AÑO: 2004
DURACIÓN: 87 min.
PAÍS: USA
DIRECTOR: John Hamburg
GUIÓN: John Hamburg
REPARTO: Ben Stiller, Jennifer Aniston, Philip Seymour Hoffman, Debra Messing, Alec Baldwin, Hank Azaria, Bryan Brown, Masi Oka
PRODUCTORA: Universal Pictures / Jersey Films
GÉNERO: Romance. Comedia | Comedia romántica
imdb-logo.png
: http://www.imdb.com/title/tt0343135/




Sinopsis.jpg


Reuben Feffer (Ben Stiller) le tiene aversión al riesgo, pero su ordenada y planificada vida se complica cuando, durante su luna de miel, su mujer (Debra Messing) se interesa por un musculoso instructor cubano de submarinismo (Hank Azaria). Al mismo tiempo, entra en escena Polly (Jennifer Aniston), una amiga suya de la infancia, que lo introduce en los deportes de riesgo, la comida picante y el baile de la salsa. En definitiva, le enseña a vivir despreocupadamente y a disfrutar de cada momento.




Trailer.jpg






Capturas.jpg


1.jpg


2.jpg


3.jpg


4.jpg


5.jpg


6.jpg


La pelicula NO tiene ninguna marca... solo colocamos el nombre de esta web en las capturas




MediaInfo.jpg


Código:
General
Format                                   : Matroska
Format version                           : Version 2
File size                                : 3.94 GiB
Duration                                 : 1h 30mn
Overall bit rate                         : 6 248 Kbps
Movie name                               : www.club-hd.com
Encoded date                             : UTC 2013-02-18 03:23:13
Writing application                      : mkvmerge v5.7.0 ('The Whirlwind') built on Jul  8 2012 20:08:51
Writing library                          : libebml v1.2.3 + libmatroska v1.3.0

Video
ID                                       : 1
Format                                   : AVC
Format/Info                              : Advanced Video Codec
Format profile                           : [email protected]
Format settings, CABAC                   : Yes
Format settings, ReFrames                : 5 frames
Codec ID                                 : V_MPEG4/ISO/AVC
Duration                                 : 1h 30mn
Bit rate                                 : 5 418 Kbps
Width                                    : 1 280 pixels
Height                                   : 696 pixels
Display aspect ratio                     : 1.85:1
Frame rate mode                          : Constant
Frame rate                               : 23.976 fps
Color space                              : YUV
Chroma subsampling                       : 4:2:0
Bit depth                                : 8 bits
Scan type                                : Progressive
Bits/(Pixel*Frame)                       : 0.254
Stream size                              : 3.33 GiB (85%)
Title                                    : www.club-hd.com
Writing library                          : x264 core 114 r1913 5fd3dce
Language                                 : English
Default                                  : Yes
Forced                                   : No

Audio #1
ID                                       : 2
Format                                   : AC-3
Format/Info                              : Audio Coding 3
Mode extension                           : CM (complete main)
Format settings, Endianness              : Big
Codec ID                                 : A_AC3
Duration                                 : 1h 30mn
Bit rate mode                            : Constant
Bit rate                                 : 384 Kbps
Channel(s)                               : 6 channels
Channel positions                        : Front: L C R, Side: L R, LFE
Sampling rate                            : 48.0 KHz
Bit depth                                : 16 bits
Compression mode                         : Lossy
Delay relative to video                  : 24ms
Stream size                              : 248 MiB (6%)
Title                                    : www.club-hd.com  >>  Latino
Language                                 : Spanish
Default                                  : Yes
Forced                                   : No

Audio #2
ID                                       : 3
Format                                   : AC-3
Format/Info                              : Audio Coding 3
Mode extension                           : CM (complete main)
Format settings, Endianness              : Big
Codec ID                                 : A_AC3
Duration                                 : 1h 30mn
Bit rate mode                            : Constant
Bit rate                                 : 448 Kbps
Channel(s)                               : 6 channels
Channel positions                        : Front: L C R, Side: L R, LFE
Sampling rate                            : 48.0 KHz
Bit depth                                : 16 bits
Compression mode                         : Lossy
Stream size                              : 289 MiB (7%)
Title                                    : www.club-hd.com  >>  Inglés
Language                                 : English
Default                                  : No
Forced                                   : No

Text #1
ID                                       : 4
Format                                   : UTF-8
Codec ID                                 : S_TEXT/UTF8
Codec ID/Info                            : UTF-8 Plain Text
Language                                 : Spanish
Default                                  : No
Forced                                   : No

Text #2
ID                                       : 5
Format                                   : UTF-8
Codec ID                                 : S_TEXT/UTF8
Codec ID/Info                            : UTF-8 Plain Text
Language                                 : English
Default                                  : No
Forced                                   : No

Menu
00:00:00.000                             : en:00:00:00.000
00:01:46.732                             : en:00:01:46.732
00:06:28.305                             : en:00:06:28.305
00:11:42.660                             : en:00:11:42.660
00:18:41.120                             : en:00:18:41.120
00:21:56.482                             : en:00:21:56.482
00:24:33.639                             : en:00:24:33.639
00:33:53.490                             : en:00:33:53.490
00:36:42.534                             : en:00:36:42.534
00:38:44.697                             : en:00:38:44.697
00:41:34.492                             : en:00:41:34.492
00:45:26.182                             : en:00:45:26.182
00:48:38.541                             : en:00:48:38.541
00:50:55.511                             : en:00:50:55.511
00:59:17.471                             : en:00:59:17.471
01:04:57.977                             : en:01:04:57.977
01:10:47.034                             : en:01:10:47.034
01:20:06.552                             : en:01:20:06.552
01:22:54.094                             : en:01:22:54.094
01:24:53.547                             : en:01:24:53.547




Descarga.jpg





google-drive-vip.png


Tenemos TODO el material de Club-HD disponible por Mega, enlaces 100% activos y online hasta la fecha

Llévate tus cuentas Mega PRO III gratis con tu membresía VIP!
Todos los posts vivos con links de Mega.
Todo el material de Club-HD desbloqueado y sin publicidad.

Obtén más información sobre nuestras Membresías VIP



MEGA.jpg

Tenemos TODO el material de Club-HD disponible por Mega, enlaces 100% activos y online hasta la fecha

Llévate tus cuentas Mega PRO III gratis con tu membresía VIP!
Todos los posts vivos con links de Mega.
Todo el material de Club-HD desbloqueado y sin publicidad.

Obtén más información sobre nuestras Membresías VIP



UPLOADED_BANNER.png

Para ver este contenido oculto, debes dar click en el botón"Like", o cualquiera de las otras reacciones:

Me Gusta Me Gusta, Me Encanta Me Encanta, Jaja Jaja, Wow Wow, Triste Triste, Molesto Molesto

 
Última edición por un moderador:
:aplausos:

Esta pelicula es muy buena, jennifer aniston y Ben Stiller es una muy buena combinacion, se va para la coleccion :D

:dplgar:

Muchas gracias por este gran aporte :aplausos:
 
Última edición:
bye Magnífico!!! Que gran película!! :dplgar: Para reír de a momentos :D:D:D Gran aporte!! Saludos. Gracias Revolver!!! guit4r_3
 
Volver