Am I Ok ? (2024) 1080p AMZN WEB-DL Latino-Inglés [Subt.Esp] (Drama. Amistad. Homosexualidad)

LuchoO

責任者

Moderador
Uploader
Registro
15 Ago 2015
Mensajes
1.940
Reacciones (ptje)
29.011

cover.png



FICHA.TECNICA.png


Captura.JPG


SINOPSIS.PNG



Lucy y Jane han sido mejores amigas toda su vida. Solo cuando Lucy se embarque en un viaje personal, se enfrentará a una prueba de su amistad y de su sentido de sí misma, en un camino que quizás no esté del todo preparada para tomar.

6.2



TRAILER.PNG



CAPTURAS.PNG


am0.0001.jpeg


am0.0002.jpeg


am0.0003.jpeg


am0.0004.jpeg



MEDIAINFO.PNG

General
Complete name : Am I Ok 2024 AMZN WEB-DL 1080p H264 Dual.mkv
Format : Matroska
Format version : Version 4
File size : 6.18 GiB
Duration : 1 h 26 min
Overall bit rate : 10.2 Mb/s
Frame rate : 23.976 FPS
Movie name : [Club-HD] Am I Ok 2024 AMZN WEB-DL 1080p H264 Dual.mkv
Encoded date : 2024-06-07 03:58:21 UTC
Writing application : mkvmerge v77.0 ('Elemental') 64-bit
Writing library : libebml v1.4.4 + libmatroska v1.7.1

Video
ID : 1
Format : AVC
Format/Info : Advanced Video Codec
Format profile : High@L4
Format settings : CABAC / 4 Ref Frames
Format settings, CABAC : Yes
Format settings, Reference frames : 4 frames
Codec ID : V_MPEG4/ISO/AVC
Duration : 1 h 26 min
Bit rate mode : Constant
Bit rate : 9 329 kb/s
Nominal bit rate : 10 000 kb/s
Width : 1 920 pixels
Height : 960 pixels
Display aspect ratio : 2.000
Frame rate mode : Constant
Frame rate : 23.976 (24000/1001) FPS
Color space : YUV
Chroma subsampling : 4:2:0
Bit depth : 8 bits
Scan type : Progressive
Bits/(Pixel*Frame) : 0.211
Stream size : 5.64 GiB (91%)
Language : English (US)
Default : Yes
Forced : No
Color range : Limited
Color primaries : BT.709
Transfer characteristics : BT.709
Matrix coefficients : BT.709

Audio #1
ID : 2
Format : E-AC-3
Format/Info : Enhanced AC-3
Commercial name : Dolby Digital Plus
Codec ID : A_EAC3
Duration : 1 h 26 min
Bit rate mode : Constant
Bit rate : 256 kb/s
Channel(s) : 6 channels
Channel layout : L R C LFE Ls Rs
Sampling rate : 48.0 kHz
Frame rate : 31.250 FPS (1536 SPF)
Compression mode : Lossy
Stream size : 158 MiB (3%)
Language : Spanish (Latin America)
Service kind : Complete Main
Default : Yes
Forced : No

Audio #2
ID : 3
Format : E-AC-3 JOC
Format/Info : Enhanced AC-3 with Joint Object Coding
Commercial name : Dolby Digital Plus with Dolby Atmos
Codec ID : A_EAC3
Duration : 1 h 26 min
Bit rate mode : Constant
Bit rate : 640 kb/s
Channel(s) : 6 channels
Channel layout : L R C LFE Ls Rs
Sampling rate : 48.0 kHz
Frame rate : 31.250 FPS (1536 SPF)
Compression mode : Lossy
Delay relative to video : 12 ms
Stream size : 396 MiB (6%)
Language : English (US)
Service kind : Complete Main
Default : No
Forced : No
Complexity index : 16
Number of dynamic objects : 15
Bed channel count : 1 channel
Bed channel configuration : LFE

Text #1
ID : 4
Format : UTF-8
Codec ID : S_TEXT/UTF8
Codec ID/Info : UTF-8 Plain Text
Duration : 1 h 5 min
Bit rate : 5 b/s
Frame rate : 0.017 FPS
Count of elements : 67
Stream size : 2.45 KiB (0%)
Title : Forced
Language : Spanish (Latin America)
Default : Yes
Forced : Yes

Text #2
ID : 5
Format : UTF-8
Codec ID : S_TEXT/UTF8
Codec ID/Info : UTF-8 Plain Text
Duration : 1 h 25 min
Bit rate : 72 b/s
Frame rate : 0.306 FPS
Count of elements : 1573
Stream size : 45.8 KiB (0%)
Title : Latin American
Language : Spanish (Latin America)
Default : No
Forced : No

Text #3
ID : 6
Format : UTF-8
Codec ID : S_TEXT/UTF8
Codec ID/Info : UTF-8 Plain Text
Duration : 1 h 21 min
Bit rate : 82 b/s
Frame rate : 0.361 FPS
Count of elements : 1756
Stream size : 49.3 KiB (0%)
Title : SDH
Language : Spanish (Latin America)
Default : No
Forced : No

Text #4
ID : 7
Format : UTF-8
Codec ID : S_TEXT/UTF8
Codec ID/Info : UTF-8 Plain Text
Duration : 1 h 24 min
Bit rate : 80 b/s
Frame rate : 0.335 FPS
Count of elements : 1691
Stream size : 49.6 KiB (0%)
Language : English (US)
Default : No
Forced : No

Text #5
ID : 8
Format : UTF-8
Codec ID : S_TEXT/UTF8
Codec ID/Info : UTF-8 Plain Text
Duration : 1 h 24 min
Bit rate : 88 b/s
Frame rate : 0.361 FPS
Count of elements : 1832
Stream size : 54.9 KiB (0%)
Title : SDH
Language : English (US)
Default : No
Forced : No

Menu
01:21:56.745 : en:Credits


DESCARGA.PNG



⭐ 1 LINK MKV VIP ⭐

Mega.png

Tenemos TODO el material de Club-HD disponible por Mega, enlaces 100% activos y online hasta la fecha

Llévate tus cuentas Mega PRO III gratis con tu membresía VIP!
Todos los posts vivos con links de Mega.
Todo el material de Club-HD desbloqueado y sin publicidad.

Obtén más información sobre nuestras Membresías VIP


LINKS FREE PÚBLICOS

Fireload.png


¡Click aquí para descargar desde Fireload!

1cloudfile.png


¡Click aquí para descargar desde 1cloudfile!

 
Volver