Amélie (2001) m-720p Dual Latino-Francés [Subt. Esp] (Comedia. Drama)

Maestro Revolver

Administrador
Registro
9 Ago 2012
Mensajes
3.157
Reacciones (ptje)
55.041


Amelie.jpg




FichaTecnica.jpg


TÍTULO ORIGINAL: Le fabuleux destin d'Amélie Poulain
AÑO: 2001
DURACIÓN: 120 min.
PAÍS: Francia
DIRECTOR: Jean-Pierre Jeunet
GUIÓN: Guillaume Laurant, Jean-Pierre Jeunet
REPARTO: Audrey Tautou, Mathieu Kassovitz, Rufus, Lorella Cravotta, Serge Merlin, Jamel Debbouze, Claire Maurier, Clotilde Mollet, Isabelle Nanty, Dominique Pinon, Artus de Penguern, Yolande Moreau, Urbain Cancelier, Maurice Benichou
PRODUCTORA: Claudie Ossard / UGC
GÉNERO: Comedia. Drama | Comedia dramática. Realismo mágico. Película de culto
imdb-logo.png
: http://www.imdb.com/title/tt0211915/

PREMIOS: 2001: 5 nominaciones al Oscar, incluyendo película de habla no inglesa, guión y fotografía
2001: Nominada al Globo de Oro: Mejor película de habla no inglesa
2001: 2 premios BAFTA: Mejor guión original y diseño de producción. 9 nominaciones
2001: 4 premios Cesar: Película, director, música, diseño de producción. 13 nominaciones
2001: Festival de Toronto: Mejor película (Premio del Público)
2001: Nominada al David de Donatello: Mejor película extranjera
2001: Critics' Choice Awards: Mejor película de habla no inglesa




Sinopsis.jpg


Amelie no es una chica como las demás. Ha visto a su pez de colores deslizarse hacia las alcantarillas municipales, a su madre morir en la plaza de Nôtre-Dame y a su padre dedicar todo su afecto a un gnomo de jardín. De repente, a los veintidós años, descubre su objetivo en la vida: arreglar la vida de los demás. A partir de entonces, inventa toda clase de estrategias para intervenir en los asuntos de los demás: su portera, que se pasa los días bebiendo vino de Oporto; Georgette, una estanquera hipocondríaca, o "el hombre de cristal", un vecino que sólo ve el mundo a través de la reproducción de un cuadro de Renoir.




Trailer.jpg






Capturas.jpg


1.jpg


2.jpg


3.jpg


4.jpg


5.jpg


6.jpg


La pelicula NO tiene ninguna marca... solo colocamos el nombre de esta web en las capturas




MediaInfo.jpg


Código:
General
Format                                   : Matroska
Format version                           : Version 2
File size                                : 3.08 GiB
Duration                                 : 2h 1mn
Overall bit rate                         : 3 625 Kbps
Movie name                               : www.club-hd.com
Encoded date                             : UTC 2013-03-08 02:11:58
Writing application                      : mkvmerge v5.7.0 ('The Whirlwind') built on Jul  8 2012 20:08:51
Writing library                          : libebml v1.2.3 + libmatroska v1.3.0

Video
ID                                       : 1
Format                                   : AVC
Format/Info                              : Advanced Video Codec
Format profile                           : [email protected]
Format settings, CABAC                   : Yes
Format settings, ReFrames                : 5 frames
Codec ID                                 : V_MPEG4/ISO/AVC
Duration                                 : 2h 1mn
Bit rate                                 : 2 599 Kbps
Width                                    : 1 280 pixels
Height                                   : 544 pixels
Display aspect ratio                     : 2.35:1
Original display aspect ratio            : 2.35:1
Frame rate mode                          : Constant
Frame rate                               : 23.976 fps
Color space                              : YUV
Chroma subsampling                       : 4:2:0
Bit depth                                : 8 bits
Scan type                                : Progressive
Bits/(Pixel*Frame)                       : 0.156
Stream size                              : 2.15 GiB (70%)
Title                                    : www.club-hd.com
Writing library                          : x264 core 98 r1649 c54c47d
Language                                 : French
Default                                  : Yes
Forced                                   : No

Audio #1
ID                                       : 2
Format                                   : AC-3
Format/Info                              : Audio Coding 3
Mode extension                           : CM (complete main)
Format settings, Endianness              : Big
Codec ID                                 : A_AC3
Duration                                 : 2h 1mn
Bit rate mode                            : Constant
Bit rate                                 : 640 Kbps
Channel(s)                               : 2 channels
Channel positions                        : Front: L R
Sampling rate                            : 48.0 KHz
Bit depth                                : 16 bits
Compression mode                         : Lossy
Stream size                              : 557 MiB (18%)
Title                                    : www.club-hd.com  >>  Latino
Language                                 : Spanish
Default                                  : Yes
Forced                                   : No

Audio #2
ID                                       : 3
Format                                   : AC-3
Format/Info                              : Audio Coding 3
Mode extension                           : CM (complete main)
Format settings, Endianness              : Big
Codec ID                                 : A_AC3
Duration                                 : 2h 1mn
Bit rate mode                            : Constant
Bit rate                                 : 384 Kbps
Channel(s)                               : 6 channels
Channel positions                        : Front: L C R, Side: L R, LFE
Sampling rate                            : 48.0 KHz
Bit depth                                : 16 bits
Compression mode                         : Lossy
Stream size                              : 334 MiB (11%)
Title                                    : www.club-hd.com  >>  Francés
Language                                 : French
Default                                  : No
Forced                                   : No

Text
ID                                       : 4
Format                                   : UTF-8
Codec ID                                 : S_TEXT/UTF8
Codec ID/Info                            : UTF-8 Plain Text
Language                                 : Spanish
Default                                  : No
Forced                                   : No




Descarga.jpg




google-drive-vip.png


Tenemos TODO el material de Club-HD disponible por Mega, enlaces 100% activos y online hasta la fecha

Llévate tus cuentas Mega PRO III gratis con tu membresía VIP!
Todos los posts vivos con links de Mega.
Todo el material de Club-HD desbloqueado y sin publicidad.

Obtén más información sobre nuestras Membresías VIP




MEGA.jpg

Tenemos TODO el material de Club-HD disponible por Mega, enlaces 100% activos y online hasta la fecha

Llévate tus cuentas Mega PRO III gratis con tu membresía VIP!
Todos los posts vivos con links de Mega.
Todo el material de Club-HD desbloqueado y sin publicidad.

Obtén más información sobre nuestras Membresías VIP



UPLOADED_BANNER.png

Para ver este contenido oculto, debes dar click en el botón"Like", o cualquiera de las otras reacciones:

Me Gusta Me Gusta, Me Encanta Me Encanta, Jaja Jaja, Wow Wow, Triste Triste, Molesto Molesto

 
Última edición por un moderador:
:aplausos: :aplausos: :aplausos:
Increible Revolver! Gracias amigo por cumplir mi pedido, esta esta dentro de mis peliculas favoritas, tengo años de no verla y ahora gracias a ti Amigo la voy a disfrutar de la mejor manera.
Sin duda eres el mejor Amigo, Gracias! Pl4yb0y
Desc_g_
 
Gracias Amigo Revolver, descargando... ah y tambien planeando la compra de otro disco duro, jejeje... Saludos y Exitos! Tb_up3
 
FELICIDADES querido Omar, ya tienes tu obsequio, jamas la vi...me la llevo ya que tu la recomiendas. GRACIAS MASTER!!!!:aplausos:
 
Enserio hoy estas imparable R21 esta es una de mis películas favoritas :'D muchas gracias
 
Una fotografía acertadísima, una historia bonita y un reparto, como mínimo, muy apropiado. Todo ello consigue que esta pelícua, dirigida con un estilo muy sofisticado para lo que te está contando, sea original y muy glamurosa. Y esto es lo grande: una historia tan simple como la de una chica tímida enamorada se convierte en una odisea llena de aventuras y situaciones estrambóticas por conseguir ese amor.

Lo mejor de todo ello es que estas situaciones están buscadas por la propia protagonista, llena de imaginación y buenas intenciones... Y a veces, mucha mala leche.

En resumen, Amelie es un film de trasfondo costumbrista que, usando el ingenio y la originalidad, convierte esa historia de amor en un precioso cuento parisino, lleno de contraste y luz.

Muy divertida, tierna y con gran estilo... ¡Amelie me encanta...!

Ojalá haya espacio para una versión en 1080p.

Gracias Maestro!!Tb_up3Tb_up3Tb_up3
 
Última edición:
Volver