American History X (1998) 1080p BDRip Dual Latino-Inglés [Subt. Esp] (Drama)

Maestro Revolver

Miembro del Staff
Administrador
Registro
9 Ago 2012
Mensajes
3.157








TÍTULO ORIGINAL: American History X
AÑO: 1998
DURACIÓN: 119 min.
PAÍS: USA
DIRECTOR: Tony Kaye
GUIÓN: David McKenna
REPARTO: Edward Norton, Edward Furlong, Fairuza Balk, Stacy Keach, Elliott Gould, Avery Brooks, Beverly D'Angelo, Jennifer Lien, Guy Torry, Ethan Suplee, Keram Malicki-Sanchez
PRODUCTORA: New Line Cinema
GÉNERO: Drama | Racismo. Drama carcelario. Película de culto. Nazismo
: http://www.imdb.com/title/tt0120586/






Derek (Edward Norton), un joven "skin head" californiano de ideología neonazi, fue encarcelado por asesinar a un negro que pretendía robarle su furgoneta. Cuando sale de prisión y regresa a su barrio dispuesto a alejarse del mundo de la violencia, se encuentra con que su hermano pequeño (Edward Furlong), para quien Derek es el modelo a seguir, sigue el mismo camino que a él lo condujo a la cárcel.
























La pelicula NO tiene ninguna marca... solo colocamos el nombre de esta web en las capturas






Código:
General
Complete name                            : American History X (1998) 1080p BDRip Dual Latino-Inglés [Subt. Esp].mkv
Format                                   : Matroska
Format version                           : Version 4 / Version 2
File size                                : 9.36 GiB
Duration                                 : 1h 58mn
Overall bit rate                         : 11.3 Mbps
Movie name                               : www.club-hd.com -> American History X (1998) 1080p BDRip Dual Latino-Inglés [Subt. Esp]
Encoded date                             : UTC 2015-06-01 16:02:59
Writing application                      : mkvmerge v7.8.0 ('River Man') 64bit built on Mar 27 2015 16:31:37
Writing library                          : libebml v1.3.1 + libmatroska v1.4.2

Video
ID                                       : 1
Format                                   : AVC
Format/Info                              : Advanced Video Codec
Format profile                           : High@L4.1
Format settings, CABAC                   : Yes
Format settings, ReFrames                : 4 frames
Codec ID                                 : V_MPEG4/ISO/AVC
Duration                                 : 1h 58mn
Bit rate                                 : 8 923 Kbps
Width                                    : 1 920 pixels
Height                                   : 1 072 pixels
Display aspect ratio                     : 16:9
Frame rate mode                          : Constant
Frame rate                               : 23.976 fps
Color space                              : YUV
Chroma subsampling                       : 4:2:0
Bit depth                                : 8 bits
Scan type                                : Progressive
Bits/(Pixel*Frame)                       : 0.181
Stream size                              : 7.23 GiB (77%)
Title                                    : American History X (1998) 1080p BDRip Dual Latino-Inglés [Subt. Esp]
Writing library                          : x264 core 67 r1129 c109c8e
Encoding settings                        : cabac=1 / ref=4 / deblock=1:0:0 / analyse=0x3:0x133 / me=umh / subme=7 / psy_rd=1.0:0.0 / mixed_ref=1 / me_range=16 / chroma_me=1 / trellis=1 / 8x8dct=1 / cqm=0 / deadzone=21,11 / chroma_qp_offset=-2 / threads=12 / nr=0 / decimate=1 / mbaff=0 / bframes=3 / b_pyramid=1 / b_adapt=1 / b_bias=0 / direct=1 / wpredb=1 / keyint=250 / keyint_min=25 / scenecut=40 / rc=2pass / bitrate=8923 / ratetol=1.0 / qcomp=0.60 / qpmin=10 / qpmax=51 / qpstep=4 / cplxblur=20.0 / qblur=0.5 / ip_ratio=1.40 / pb_ratio=1.30 / aq=1:1.00
Language                                 : English
Default                                  : Yes
Forced                                   : No

Audio #1
ID                                       : 2
Format                                   : AC-3
Format/Info                              : Audio Coding 3
Format profile                           : Dolby Digital
Mode extension                           : CM (complete main)
Format settings, Endianness              : Big
Codec ID                                 : A_AC3
Duration                                 : 1h 58mn
Bit rate mode                            : Constant
Bit rate                                 : 192 Kbps
Channel(s)                               : 2 channels
Channel positions                        : Front: L R
Sampling rate                            : 48.0 KHz
Bit depth                                : 16 bits
Compression mode                         : Lossy
Stream size                              : 163 MiB (2%)
Title                                    : American History X (1998) - Español Latino AC3 2.0 - 192 Kbps
Language                                 : Spanish
Default                                  : Yes
Forced                                   : No

Audio #2
ID                                       : 3
Format                                   : AC-3
Format/Info                              : Audio Coding 3
Mode extension                           : CM (complete main)
Format settings, Endianness              : Big
Codec ID                                 : A_AC3
Duration                                 : 1h 58mn
Bit rate mode                            : Constant
Bit rate                                 : 640 Kbps
Channel(s)                               : 6 channels
Channel positions                        : Front: L C R, Side: L R, LFE
Sampling rate                            : 48.0 KHz
Bit depth                                : 16 bits
Compression mode                         : Lossy
Stream size                              : 544 MiB (6%)
Title                                    : American History X (1998) - Inglés AC3 5.1 - 640 Kbps
Language                                 : English
Default                                  : No
Forced                                   : No

Audio #3
ID                                       : 4
Format                                   : DTS
Format/Info                              : Digital Theater Systems
Mode                                     : 16
Format settings, Endianness              : Big
Codec ID                                 : A_DTS
Duration                                 : 1h 58mn
Bit rate mode                            : Constant
Bit rate                                 : 1 509 Kbps
Channel(s)                               : 6 channels
Channel positions                        : Front: L C R, Side: L R, LFE
Sampling rate                            : 48.0 KHz
Bit depth                                : 16 bits
Compression mode                         : Lossy
Stream size                              : 1.25 GiB (13%)
Title                                    : American History X (1998) - Inglés DTS 5.1 - 1509 Kbps
Language                                 : English
Default                                  : No
Forced                                   : No

Text
ID                                       : 5
Format                                   : UTF-8
Codec ID                                 : S_TEXT/UTF8
Codec ID/Info                            : UTF-8 Plain Text
Title                                    : American History X (1998) - Subtítulos Español
Language                                 : Spanish
Default                                  : No
Forced                                   : No

Menu
00:00:00.000                             : en:Logos/Credits
00:02:41.328                             : en:That Night
00:06:30.765                             : en:"My Mein Kamf" By Daniel Vinyard
00:08:09.155                             : en:A New Assignment
00:11:03.788                             : en:The Boys Room
00:16:05.590                             : en:"Venice Was a Nice Place to Live"
00:17:22.500                             : en:The Basketball Game
00:22:21.298                             : en:Derek Returns From Prison
00:29:08.163                             : en:"Was That Sweeney on the Phone?"
00:33:28.173                             : en:"American History X" By Daniel Vinyard
00:37:55.231                             : en:Shopping Spree
00:40:47.612                             : en:The Vinyards
00:50:48.629                             : en:Danny and Mother
00:52:24.892                             : en:"I Go Back to That Night..."
00:56:48.280                             : en:The Party
01:01:06.413                             : en:"I Am Out!"
01:05:51.281                             : en:Seth's Gun
01:07:45.353                             : en:Derek's Story
01:08:51.294                             : en:"After Two Days in That Place..."
01:11:52.016                             : en:Dirty Laundry
01:14:59.495                             : en:Visiting Day
01:18:58.400                             : en:The Truth About White Supremacy
01:22:11.510                             : en:"You Don't Get Six Years for Stealing a TV"
01:24:46.623                             : en:The Attack
01:31:39.953                             : en:"So I Was Right Back Where I Started"
01:34:25.201                             : en:"Tired of Feeling Pissed Off..."
01:38:24.524                             : en:Dad
01:42:24.722                             : en:Derek's Tatoo
01:44:11.954                             : en:"It's 5:40 Am"
01:46:12.575                             : en:A New Morning
01:51:33.812                             : en:The Bathroom
01:54:04.796                             : en:...in the End
01:55:22.916                             : en:End Credits










Código:
www.club-hd.com[/CENTER]




Enlaces de Mega y Google Drive solo disponibles para Miembros VIP

Compra tu Membresía VIP y apoya a Club-HD!

ATENCIÓN! Tenemos TODO el material de Club-HD disponible por Mega y Google Drive, enlaces 100% activos y online hasta la fecha

Llévate tus cuentas Mega PRO III gratis con tu membresía VIP!
Todos los posts vivos con links de Mega y Google Drive.
Todo el material de Club-HD desbloqueado y sin publicidad.

Click Aquí para más información.

Enlaces de Mega y Google Drive solo disponibles para Miembros VIP

Compra tu Membresía VIP y apoya a Club-HD!

ATENCIÓN! Tenemos TODO el material de Club-HD disponible por Mega y Google Drive, enlaces 100% activos y online hasta la fecha

Llévate tus cuentas Mega PRO III gratis con tu membresía VIP!
Todos los posts vivos con links de Mega y Google Drive.
Todo el material de Club-HD desbloqueado y sin publicidad.

Click Aquí para más información.

Para ver este contenido oculto, debes dar click en una de las siguientes reacciones : Like Like, Love Love, Haha Haha, Wow Wow, Sad Sad, Angry Angry

Para ver este contenido oculto, debes dar click en una de las siguientes reacciones : Like Like, Love Love, Haha Haha, Wow Wow, Sad Sad, Angry Angry
 
Última edición por un moderador:

Mate78

Ladron de mi cerebro
Ex Staff
Registro
27 Ago 2012
Mensajes
1.057
Te fuiste a los caños bestia , gracias por este excelenteeee aporte !!!!!:dplgar:
 

Usuarios Que Están Viendo Este Tema (Total: 1, Miembros: 0, Invitados: 1)

Quién Leyó Este Tema (Total Miembros: 5)

Arriba