Amores Perros (2000) 1080p BDRip Audio Latino [Subt. Ing] (Drama)

Max

Admin

Administrador
Registro
8 Ago 2012
Mensajes
6.237
Reacciones (ptje)
26.944


Amores_Perros_POSTER.jpg



TÍTULO ORIGINAL: Amores perros
AÑO: 2000
DURACIÓN: 150 min.
PAÍS: México
DIRECTOR: Alejandro González Iñárritu
GUIÓN: Guillermo Arriaga
MÚSICA: Gustavo Santaolalla
FOTOGRAFÍA: Rodrigo Prieto
REPARTO: Emilio Echevarría, Gael García Bernal, Goya Toledo, Álvaro Guerrero, Vanessa Bauche, Jorge Salinas, Marco Pérez, Rodrigo Murray, Humberto Busto, Gerardo Campbell, Rosa María Bianchi, Dunia Saldívar, Adriana Barraza, José Sefami, Patricio Castillo, Lourdes Echevarría, Gustavo Sánchez Parra, Dagoberto Gama
PRODUCTORA: Altavista Films / Zeta Film
PREMIOS:
2000: Nominada al Oscar: Mejor película de habla no inglesa
2000: Nominada al Globo de Oro: Mejor película de habla no inglesa
2000: Cannes: Gran Premio Semana de la Crítica
2001: Premios BAFTA: Mejor película en habla no inglesa
2000: 11 Premios Ariel (de la Academia Mexicana de Cine)
GÉNERO: Drama | Historias cruzadas. Drama social

IMDb.png
http://www.imdb.com/title/tt0245712/?ref_=fn_al_tt_1




SINOPSIS.png


En Ciudad de México, un fatal accidente automovilístico afecta trágicamente a tres personas. Octavio, un adolescente, decide escaparse con Susana, la esposa de su hermano; el Cofí, su perro, se convierte en el instrumento para conseguir el dinero necesario para la fuga. Al mismo tiempo, Daniel, un hombre maduro deja a su esposa y a sus hijos para irse a vivir con Valeria, una hermosa modelo. El mismo día en que celebran su nueva vida, el destino hace que Valeria sea víctima de un trágico accidente.




YOUTUBE_LOGO.png






CAPTURAS.png


Amores_Perros_CAPTURA-1.jpg


Amores_Perros_CAPTURA-2.jpg


Amores_Perros_CAPTURA-3.jpg


Amores_Perros_CAPTURA-4.jpg


Amores_Perros_CAPTURA-5.jpg


Amores_Perros_CAPTURA-6.jpg


Amores_Perros_CAPTURA-7.jpg


Amores_Perros_CAPTURA-8.jpg





DATOS_TECNICOS.png


Código:
General
Complete name                            : Amores Perros (2000) 1080p BDRip Audio Latino [Subt. Ing].mkv
Format                                   : Matroska
Format version                           : Version 4 / Version 2
File size                                : 14.2 GiB
Duration                                 : 2h 34mn
Overall bit rate                         : 13.2 Mbps
Movie name                               : www.club-hd.com --> Amores Perros (2000) 1080p BDRip Audio Latino [Subt. Ing]
Encoded date                             : UTC 2010-02-22 21:41:31
Writing application                      : mkvmerge v5.9.0 ('On The Loose') built on Dec  9 2012 15:37:01
Writing library                          : libebml v1.3.0 + libmatroska v1.4.0

Video
ID                                       : 1
Format                                   : AVC
Format/Info                              : Advanced Video Codec
Format profile                           : [email protected]
Format settings, CABAC                   : Yes
Format settings, ReFrames                : 4 frames
Codec ID                                 : V_MPEG4/ISO/AVC
Duration                                 : 2h 34mn
Bit rate                                 : 11.0 Mbps
Width                                    : 1 920 pixels
Height                                   : 1 080 pixels
Display aspect ratio                     : 16:9
Frame rate mode                          : Constant
Frame rate                               : 23.976 fps
Color space                              : YUV
Chroma subsampling                       : 4:2:0
Bit depth                                : 8 bits
Scan type                                : Progressive
Bits/(Pixel*Frame)                       : 0.222
Stream size                              : 11.6 GiB (82%)
Title                                    : www.club-hd.com --> Amores Perros (2000) 1080p BDRip Audio Latino [Subt. Ing]
Writing library                          : x264 core 104 r1703 cd21d05
Encoding settings                        : cabac=1 / ref=4 / deblock=1:-3:-3 / analyse=0x3:0x113 / me=umh / subme=9 / psy=1 / psy_rd=1.05:0.10 / mixed_ref=1 / me_range=48 / chroma_me=1 / trellis=2 / 8x8dct=1 / cqm=0 / deadzone=21,11 / fast_pskip=0 / chroma_qp_offset=-2 / threads=12 / sliced_threads=0 / nr=0 / decimate=1 / interlaced=0 / constrained_intra=0 / bframes=6 / b_pyramid=2 / b_adapt=2 / b_bias=0 / direct=3 / weightb=1 / open_gop=0 / weightp=2 / keyint=250 / keyint_min=23 / scenecut=40 / intra_refresh=0 / rc_lookahead=60 / rc=2pass / mbtree=1 / bitrate=11039 / ratetol=2.0 / qcomp=0.70 / qpmin=10 / qpmax=51 / qpstep=4 / cplxblur=20.0 / qblur=0.5 / vbv_maxrate=50000 / vbv_bufsize=50000 / ip_ratio=1.40 / aq=1:0.90 / nal_hrd=none
Language                                 : Spanish
Default                                  : Yes
Forced                                   : No

Audio #1
ID                                       : 2
Format                                   : AC-3
Format/Info                              : Audio Coding 3
Mode extension                           : CM (complete main)
Format settings, Endianness              : Big
Codec ID                                 : A_AC3
Duration                                 : 2h 34mn
Bit rate mode                            : Constant
Bit rate                                 : 640 Kbps
Channel(s)                               : 6 channels
Channel positions                        : Front: L C R, Side: L R, LFE
Sampling rate                            : 48.0 KHz
Bit depth                                : 16 bits
Compression mode                         : Lossy
Stream size                              : 706 MiB (5%)
Title                                    : Amores Perros (2000) - Español Latino AC3 5.1
Language                                 : Spanish
Default                                  : Yes
Forced                                   : No

Audio #2
ID                                       : 3
Format                                   : DTS
Format/Info                              : Digital Theater Systems
Mode                                     : 16
Format settings, Endianness              : Big
Codec ID                                 : A_DTS
Duration                                 : 2h 34mn
Bit rate mode                            : Constant
Bit rate                                 : 1 509 Kbps
Channel(s)                               : 6 channels
Channel positions                        : Front: L C R, Side: L R, LFE
Sampling rate                            : 48.0 KHz
Bit depth                                : 24 bits
Compression mode                         : Lossy
Stream size                              : 1.62 GiB (11%)
Title                                    : Amores Perros (2000) - Español Latino DTS 5.1
Language                                 : Spanish
Default                                  : No
Forced                                   : No

Text
ID                                       : 4
Format                                   : UTF-8
Codec ID                                 : S_TEXT/UTF8
Codec ID/Info                            : UTF-8 Plain Text
Title                                    : Subtítulos Inglés
Language                                 : English
Default                                  : No
Forced                                   : No




DESCARGA.png





google-drive-vip.png


Tenemos TODO el material de Club-HD disponible por Mega, enlaces 100% activos y online hasta la fecha

Llévate tus cuentas Mega PRO III gratis con tu membresía VIP!
Todos los posts vivos con links de Mega.
Todo el material de Club-HD desbloqueado y sin publicidad.

Obtén más información sobre nuestras Membresías VIP



MEGA.jpg

Tenemos TODO el material de Club-HD disponible por Mega, enlaces 100% activos y online hasta la fecha

Llévate tus cuentas Mega PRO III gratis con tu membresía VIP!
Todos los posts vivos con links de Mega.
Todo el material de Club-HD desbloqueado y sin publicidad.

Obtén más información sobre nuestras Membresías VIP



UPLOADED.NET_BANNER.png

Para ver este contenido oculto, debes dar click en el botón"Like", o cualquiera de las otras reacciones:

Me Gusta Me Gusta, Me Encanta Me Encanta, Jaja Jaja, Wow Wow, Triste Triste, Molesto Molesto
 
Última edición por un moderador:
en 1080 maxter eso si es poder, gracias, deberias incluirle el soundtrack tambien esta de 10
 
Madreee miaaaa muchas graciassssss!!! Graciassssssss!!! :d:d:d:d:d
 
Esta película merece tenerla en esta calidad y con los soundtrack incluidos gracias.:aplausos:

Gracias Master MAX! y trail.:aplausos:
 
gracias por llenarnos de tanto buen cine., por su trabajo y por compartirlo.
 
Volver