• Este aviso va dirigido a todos los nuevos miembros recien llegados a Club-HD. Les recordamos que la direccion URL de este sitio web es , asi que deben acceder únicamente por esta URL. Sean todos bienvenidos al Club!

An American Pickle (2020) 1080p WEB-DL Inglés [Subt. Esp] (Comedia. Fantástico)

Dante Inferno

🔥Dante Inferno🔥
Miembro del Staff
Moderador
Uploader
Registrado
24 May 2016
Mensajes
618
Puntos de reacción
12,982
Puntos
93
Ubicación
Argentina
Sitio web
club-hd.com



Otro títulos: Encurtido en el tiempo


SINOPSIS

Herschel es un inmigrante que se muda a Estados Unidos en 1920 con la esperanza de iniciar una vida mejor con su familia. Un día cae accidentalmente en una cuba de pepinillo y se queda en salmuera durante 100 años, despertando luego en perfectas condiciones en la moderna Brooklyn. La cosa se complica cuando descubre que el único miembro de su familia con vida es su bisnieto, con el que tiene muy poco en común.

MÁS INFORMACIÓN




TRAILER



CAPTURAS




MEDIAINFO

General
Complete name : An American Pickle (2020) 1080p WEB-DL Inglés [Subt. Esp].mkv
Format : Matroska
Format version : Version 4
File size : 5.32 GiB
Duration : 1 h 28 min
Overall bit rate mode : Variable
Overall bit rate : 8 608 kb/s
Movie name : An American Pickle (2020) 1080p WEB-DL Inglés [Subt. Esp] [www.club-hd.com]
Encoded date : UTC 2020-08-11 12:00:32
Writing application : mkvmerge v27.0.0 ('Metropolis') 64-bit
Writing library : libebml v1.3.6 + libmatroska v1.4.9

Video
ID : 1
Format : AVC
Format/Info : Advanced Video Codec
Format profile : High@L4
Format settings : CABAC / 4 Ref Frames
Format settings, CABAC : Yes
Format settings, Reference frames : 4 frames
Codec ID : V_MPEG4/ISO/AVC
Duration : 1 h 28 min
Bit rate mode : Variable
Bit rate : 8 222 kb/s
Maximum bit rate : 12.4 Mb/s
Width : 1 920 pixels
Height : 1 080 pixels
Display aspect ratio : 16:9
Frame rate mode : Constant
Frame rate : 23.976 (24000/1001) FPS
Color space : YUV
Chroma subsampling : 4:2:0
Bit depth : 8 bits
Scan type : Progressive
Bits/(Pixel*Frame) : 0.165
Stream size : 5.08 GiB (96%)
Title : An American Pickle (2020) 1080p WEB-DL Inglés [Subt. Esp]
Language : English
Default : Yes
Forced : No

Audio
ID : 2
Format : AC-3
Format/Info : Audio Coding 3
Commercial name : Dolby Digital
Codec ID : A_AC3
Duration : 1 h 28 min
Bit rate mode : Constant
Bit rate : 384 kb/s
Channel(s) : 6 channels
Channel layout : L R C LFE Ls Rs
Sampling rate : 48.0 kHz
Frame rate : 31.250 FPS (1536 SPF)
Compression mode : Lossy
Stream size : 243 MiB (4%)
Title : Inglés
Language : English
Service kind : Complete Main
Default : Yes
Forced : No

Text
ID : 3
Format : UTF-8
Codec ID : S_TEXT/UTF8
Codec ID/Info : UTF-8 Plain Text
Duration : 1 h 23 min
Bit rate : 75 b/s
Count of elements : 1330
Stream size : 45.8 KiB (0%)
Title : Subtítulos Español
Language : Spanish
Default : Yes
Forced : No


CONTRASEÑA





Disponible
⭐¡VER ONLINE y DESCARGAR 1 LINK!⭐


Enlaces de Mega y Google Drive solo disponibles para Miembros VIP

Compra tu Membresía VIP y apoya a Club-HD!

ATENCIÓN! Tenemos TODO el material de Club-HD disponible por Mega y Google Drive, enlaces 100% activos y online hasta la fecha

Llévate tus cuentas Mega PRO II gratis con tu membresía VIP!
Todos los posts vivos con links de Mega y Google Drive.
Todo el material de Club-HD desbloqueado y sin publicidad.

Click Aquí para más información.

DESCARGAR



Enlaces de Mega y Google Drive solo disponibles para Miembros VIP

Compra tu Membresía VIP y apoya a Club-HD!

ATENCIÓN! Tenemos TODO el material de Club-HD disponible por Mega y Google Drive, enlaces 100% activos y online hasta la fecha

Llévate tus cuentas Mega PRO II gratis con tu membresía VIP!
Todos los posts vivos con links de Mega y Google Drive.
Todo el material de Club-HD desbloqueado y sin publicidad.

Click Aquí para más información.



Para ver este contenido oculto, debes dar click en una de las siguientes reacciones: Like Like, Love Love, Haha Haha, Wow Wow, Sad Sad, Angry Angry



Para ver este contenido oculto, debes dar click en una de las siguientes reacciones: Like Like, Love Love, Haha Haha, Wow Wow, Sad Sad, Angry Angry



Para ver este contenido oculto, debes dar click en una de las siguientes reacciones: Like Like, Love Love, Haha Haha, Wow Wow, Sad Sad, Angry Angry



Para ver este contenido oculto, debes dar click en una de las siguientes reacciones: Like Like, Love Love, Haha Haha, Wow Wow, Sad Sad, Angry Angry
 

El14mago

Well-known member
Miembro VIP
Registrado
10 Sep 2014
Mensajes
1,036
Puntos de reacción
53
Puntos
48
Edad
51
Gracias por el aporte.-
 

rachi

Active member
Registrado
21 Jul 2018
Mensajes
689
Puntos de reacción
83
Puntos
28
Gracias por el aporte
 

ERRE

Well-known member
Registrado
28 Ago 2012
Mensajes
2,252
Puntos de reacción
177
Puntos
63
Gracias...😄
 

Usuarios Que Están Viendo Este Tema (Total: 1, Miembros: 0, Invitados: 1)

Arriba