Anna Karenina (2012) m-720p Dual Latino-Inglés [Subt. Esp-Ing] (Romance. Drama)

Maestro Revolver

Administrador
Registro
9 Ago 2012
Mensajes
3.157
Reacciones (ptje)
55.205


Anna-Karenina.jpg




FichaTecnica.jpg


TÍTULO ORIGINAL: Anna Karenina
AÑO: 2012
DURACIÓN: 130 min.
PAÍS: Reino Unido
DIRECTOR: Joe Wright
GUIÓN: Tom Stoppard (Novela: León Tostói)
REPARTO: Keira Knightley, Aaron Johnson, Jude Law, Domhnall Gleeson, Kelly Macdonald, Olivia Williams, Ruth Wilson, Matthew Macfadyen, Emily Watson, Michelle Dockery, Jude Monk McGowan, Holliday Grainger, Luke Newberry, Alicia Vikander, Susanne Lothar
PRODUCTORA: Working Title Productions
GÉNERO: Romance. Drama | Drama de época. Siglo XIX
imdb-logo.png
: http://www.imdb.es/title/tt1781769/




Sinopsis.jpg


La historia tiene lugar en el siglo XIX y explora varias relaciones entre los miembros de la alta sociedad rusa. Ana Karenina, una mujer de la alta sociedad enamorada del joven oficial Vronski, que abandona a su esposo y a su hijo para seguir a su amante. Nueva adaptación de la novela homónima de León Tostói.




Trailer.jpg






Capturas.jpg


1.jpg


2.jpg


3.jpg


4.jpg


5.jpg


6.jpg


La pelicula NO tiene ninguna marca... solo colocamos el nombre de esta web en las capturas




MediaInfo.jpg


Código:
General
Format                                   : Matroska
Format version                           : Version 2
File size                                : 3.25 GiB
Duration                                 : 2h 9mn
Overall bit rate                         : 3 588 Kbps
Movie name                               : www.club-hd.com
Encoded date                             : UTC 2013-02-08 00:19:41
Writing application                      : mkvmerge v5.7.0 ('The Whirlwind') built on Jul  8 2012 20:08:51
Writing library                          : libebml v1.2.3 + libmatroska v1.3.0

Video
ID                                       : 1
Format                                   : AVC
Format/Info                              : Advanced Video Codec
Format profile                           : [email protected]
Format settings, CABAC                   : Yes
Format settings, ReFrames                : 9 frames
Codec ID                                 : V_MPEG4/ISO/AVC
Duration                                 : 2h 9mn
Bit rate                                 : 2 758 Kbps
Width                                    : 1 280 pixels
Height                                   : 536 pixels
Display aspect ratio                     : 2.40:1
Frame rate mode                          : Constant
Frame rate                               : 23.976 fps
Color space                              : YUV
Chroma subsampling                       : 4:2:0
Bit depth                                : 8 bits
Scan type                                : Progressive
Bits/(Pixel*Frame)                       : 0.168
Stream size                              : 2.43 GiB (75%)
Title                                    : www.club-hd.com
Writing library                          : x264 core 129 r2245 bc13772
Language                                 : English
Default                                  : Yes
Forced                                   : No

Audio #1
ID                                       : 2
Format                                   : AC-3
Format/Info                              : Audio Coding 3
Mode extension                           : CM (complete main)
Format settings, Endianness              : Big
Codec ID                                 : A_AC3
Duration                                 : 2h 9mn
Bit rate mode                            : Constant
Bit rate                                 : 384 Kbps
Channel(s)                               : 6 channels
Channel positions                        : Front: L C R, Side: L R, LFE
Sampling rate                            : 48.0 KHz
Bit depth                                : 16 bits
Compression mode                         : Lossy
Stream size                              : 356 MiB (11%)
Title                                    : www.club-hd.com  >>  Latino
Language                                 : Spanish
Default                                  : Yes
Forced                                   : No

Audio #2
ID                                       : 3
Format                                   : AC-3
Format/Info                              : Audio Coding 3
Mode extension                           : CM (complete main)
Format settings, Endianness              : Big
Codec ID                                 : A_AC3
Duration                                 : 2h 9mn
Bit rate mode                            : Constant
Bit rate                                 : 448 Kbps
Channel(s)                               : 6 channels
Channel positions                        : Front: L C R, Side: L R, LFE
Sampling rate                            : 48.0 KHz
Bit depth                                : 16 bits
Compression mode                         : Lossy
Stream size                              : 415 MiB (12%)
Title                                    : www.club-hd.com  >>  Inglés
Language                                 : English
Default                                  : No
Forced                                   : No

Text #1
ID                                       : 4
Format                                   : UTF-8
Codec ID                                 : S_TEXT/UTF8
Codec ID/Info                            : UTF-8 Plain Text
Language                                 : Spanish
Default                                  : No
Forced                                   : No

Text #2
ID                                       : 5
Format                                   : UTF-8
Codec ID                                 : S_TEXT/UTF8
Codec ID/Info                            : UTF-8 Plain Text
Language                                 : English
Default                                  : No
Forced                                   : No

Menu
00:00:00.000                             : en:Chapter 1
00:05:36.294                             : en:Chapter 2
00:11:42.076                             : en:Chapter 3
00:19:59.156                             : en:Chapter 4
00:25:26.900                             : en:Chapter 5
00:32:40.750                             : en:Chapter 6
00:39:52.056                             : en:Chapter 7
00:46:59.108                             : en:Chapter 8
00:54:00.362                             : en:Chapter 9
01:00:36.258                             : en:Chapter 10
01:07:13.529                             : en:Chapter 11
01:14:52.071                             : en:Chapter 12
01:22:30.070                             : en:Chapter 13
01:27:00.549                             : en:Chapter 14
01:31:49.379                             : en:Chapter 15
01:36:12.976                             : en:Chapter 16
01:42:42.907                             : en:Chapter 17
01:47:57.971                             : en:Chapter 18
01:55:04.523                             : en:Chapter 19
02:01:45.924                             : en:Chapter 20




Descarga.jpg




google-drive-vip.png


Tenemos TODO el material de Club-HD disponible por Mega, enlaces 100% activos y online hasta la fecha

Llévate tus cuentas Mega PRO III gratis con tu membresía VIP!
Todos los posts vivos con links de Mega.
Todo el material de Club-HD desbloqueado y sin publicidad.

Obtén más información sobre nuestras Membresías VIP




MEGA.jpg

Tenemos TODO el material de Club-HD disponible por Mega, enlaces 100% activos y online hasta la fecha

Llévate tus cuentas Mega PRO III gratis con tu membresía VIP!
Todos los posts vivos con links de Mega.
Todo el material de Club-HD desbloqueado y sin publicidad.

Obtén más información sobre nuestras Membresías VIP



UPLOADED_BANNER.png

Para ver este contenido oculto, debes dar click en el botón"Like", o cualquiera de las otras reacciones:

Me Gusta Me Gusta, Me Encanta Me Encanta, Jaja Jaja, Wow Wow, Triste Triste, Molesto Molesto

OPENLOAD.png

Para ver este contenido oculto, debes dar click en el botón"Like", o cualquiera de las otras reacciones:

Me Gusta Me Gusta, Me Encanta Me Encanta, Jaja Jaja, Wow Wow, Triste Triste, Molesto Molesto

 
Última edición por un moderador:
amigo R21 , lo tuyo es cada dia mas asombroso , gracias !!!!
 
Desc_g_
Otra vez...... muchas gracias.....
 
un gran estreno, no lo veia venir, gracias revolver por estar mas adelantado que el cine de mi ciudad, les ganas por meses . saludos :dplgar:
 
Muchas gracias, aunque ya las di en el Facebook, pero siempre es bueno, agradecer infinitamente por darnos tantas buenas películas. Gracias gracias gracias!
 
revolver te queda perfecto eres mas rápido que los cines jajajaja quedare como los grandes con mi novia gracias a ti!!!
 
Volver