Arbitrage (2012) m-720p Audio Inglés [Subt. Esp-Ing] (Drama. Thriller)

Maestro Revolver

Administrador
Registro
9 Ago 2012
Mensajes
3.157
Reacciones (ptje)
54.886


Arbitrage.jpg




FICHA_TECNICA.png


TÍTULO ORIGINAL: Arbitrage
AÑO: 2012
DURACIÓN: 106 min.
PAÍS: USA
DIRECTOR: Nicholas Jarecki
GUIÓN: Nicholas Jarecki
REPARTO: Richard Gere, Brit Marling, Tim Roth, Susan Sarandon, Laetitia Casta, Nate Parker
PRODUCTORA: Coproducción EEUU-Polonia; Green Room Films / Treehouse Pictures / Alvernia Production
GÉNERO: Drama. Thriller | Bolsa & negocios. Familia
imdb-logo.png
: http://www.imdb.com/title/tt1764183/




SINOPSIS.png


El magnate Robert Miller (Richard Gere), retrato perfecto del éxito tanto profesional como familiar, aparece siempre acompañado por su fiel esposa (Susan Sarandon) y por su hija y heredera (Brit Marling). Pero, en realidad, Miller está con el agua al cuello: necesita urgentemente vender todo su imperio a un gran banco antes de que se descubra que ha cometido un fraude. Además, a espaldas de su mujer y de su hija, tiene un romance con una marchante de arte francesa (Laetitia Casta). Cuando está a punto de deshacerse de su problemático imperio, un inesperado error lo obliga a enfrentarse con su pasado y con su doble moral.




TRAILER.png






CAPTURAS.png


1.jpg


2.jpg


3.jpg


4.jpg


5.jpg


6.jpg


La pelicula NO tiene ninguna marca... solo colocamos el nombre de esta web en las capturas




DATOS_TECNICOS.png


Código:
General
Format                                   : Matroska
Format version                           : Version 2
File size                                : 2.50 GiB
Duration                                 : 1h 47mn
Overall bit rate                         : 3 333 Kbps
Movie name                               : www.club-hd.com
Encoded date                             : UTC 2012-12-17 20:12:53
Writing application                      : mkvmerge v5.7.0 ('The Whirlwind') built on Jul  8 2012 20:08:51
Writing library                          : libebml v1.2.3 + libmatroska v1.3.0

Video
ID                                       : 1
Format                                   : AVC
Format/Info                              : Advanced Video Codec
Format profile                           : [email protected]
Format settings, CABAC                   : Yes
Format settings, ReFrames                : 9 frames
Codec ID                                 : V_MPEG4/ISO/AVC
Duration                                 : 1h 47mn
Bit rate                                 : 2 694 Kbps
Width                                    : 1 280 pixels
Height                                   : 720 pixels
Display aspect ratio                     : 16:9
Frame rate mode                          : Constant
Frame rate                               : 23.976 fps
Color space                              : YUV
Chroma subsampling                       : 4:2:0
Bit depth                                : 8 bits
Scan type                                : Progressive
Bits/(Pixel*Frame)                       : 0.122
Stream size                              : 1.97 GiB (79%)
Title                                    : www.club-hd.com
Writing library                          : x264 core 129 r2230 1cffe9f
Language                                 : English
Default                                  : Yes
Forced                                   : No

Audio
ID                                       : 2
Format                                   : AC-3
Format/Info                              : Audio Coding 3
Mode extension                           : CM (complete main)
Format settings, Endianness              : Big
Codec ID                                 : A_AC3
Duration                                 : 1h 47mn
Bit rate mode                            : Constant
Bit rate                                 : 640 Kbps
Channel(s)                               : 6 channels
Channel positions                        : Front: L C R, Side: L R, LFE
Sampling rate                            : 48.0 KHz
Bit depth                                : 16 bits
Compression mode                         : Lossy
Stream size                              : 492 MiB (19%)
Title                                    : www.club-hd.com
Language                                 : English
Default                                  : Yes
Forced                                   : No

Text #1
ID                                       : 3
Format                                   : UTF-8
Codec ID                                 : S_TEXT/UTF8
Codec ID/Info                            : UTF-8 Plain Text
Language                                 : Spanish
Default                                  : Yes
Forced                                   : No

Text #2
ID                                       : 4
Format                                   : UTF-8
Codec ID                                 : S_TEXT/UTF8
Codec ID/Info                            : UTF-8 Plain Text
Language                                 : English
Default                                  : No
Forced                                   : No

Menu
00:00:00.000                             : en:Chapter 1
00:06:24.551                             : en:Chapter 2
00:13:58.671                             : en:Chapter 3
00:20:41.991                             : en:Chapter 4
00:27:21.974                             : en:Chapter 5
00:35:00.473                             : en:Chapter 6
00:40:28.926                             : en:Chapter 7
00:47:20.379                             : en:Chapter 8
00:54:28.891                             : en:Chapter 9
00:57:56.264                             : en:Chapter 10
01:06:57.680                             : en:Chapter 11
01:14:24.502                             : en:Chapter 12
01:19:12.915                             : en:Chapter 13
01:27:47.637                             : en:Chapter 14
01:37:16.456                             : en:Chapter 15
01:40:32.944                             : en:Chapter 16




Descarga.png




google-drive-vip.png


Tenemos TODO el material de Club-HD disponible por Mega, enlaces 100% activos y online hasta la fecha

Llévate tus cuentas Mega PRO III gratis con tu membresía VIP!
Todos los posts vivos con links de Mega.
Todo el material de Club-HD desbloqueado y sin publicidad.

Obtén más información sobre nuestras Membresías VIP




MEGA.jpg

Tenemos TODO el material de Club-HD disponible por Mega, enlaces 100% activos y online hasta la fecha

Llévate tus cuentas Mega PRO III gratis con tu membresía VIP!
Todos los posts vivos con links de Mega.
Todo el material de Club-HD desbloqueado y sin publicidad.

Obtén más información sobre nuestras Membresías VIP



UPLOADED.TO_BANNER.png

Para ver este contenido oculto, debes dar click en el botón"Like", o cualquiera de las otras reacciones:

Me Gusta Me Gusta, Me Encanta Me Encanta, Jaja Jaja, Wow Wow, Triste Triste, Molesto Molesto
 
Última edición por un moderador:
a descargar, eh escuchado buenas reseñas de esta peli¡¡¡
 
Otro estreno , no paras de sorprendernos y con este actor que tanto le gusta a mi Madre. :aplausos::aplausos:

GRACIAS R21!
 
Volver