Argo (2012) 1080p BDRip Dual Latino-Inglés [Subt. Esp-Ing] (Thriller. Intriga. Drama)

Maestro Revolver

Well-known member
Miembro del Staff
Administrador
Registro
9 Ago 2012
Mensajes
3.569
Reacciones
59.353
Puntos
113

Reputation:









TÍTULO ORIGINAL: Argo
AÑO: 2012
DURACIÓN: 120 min.
PAÍS: USA
DIRECTOR: Ben Affleck
GUIÓN: Chris Terrio
REPARTO: Ben Affleck, John Goodman, Alan Arkin, Bryan Cranston, Taylor Schilling, Kyle Chandler, Victor Garber, Michael Cassidy, Clea DuVall, Rory Cochrane, Scoot McNairy, Christopher Denham, Kerry Bishé, Tate Donovan, Chris Messina, Adrienne Barbeau, Tom Lenk, Titus Welliver, Zeljko Ivanek, Bob Gunton, Michael Parks
PRODUCTORA: Warner Bros. Pictures / GK Films / Smoke House Pictures
GÉNERO: Thriller. Intriga. Drama | Años 70. Política. Cine dentro del cine. Basado en hechos reales
: http://www.imdb.es/title/tt1024648/

PREMIOS: 2012: Oscar: 7 nominaciones, incluyendo Mejor película y actor sec. (Arkin)
2012: Globos de Oro: Mejor película dramática y mejor director. 5 nominaciones
2012: 2 Critics Choice Awards: Mejor película y mejor director. 7 nominaciones
2012: Premios BAFTA: 7 nominaciones, incluyendo Mejor película y actor
2012: Premios César: Nominada a Mejor película extranjera
2012: Festival de Toronto: Nominada al Premio del Público (Mejor película)
2012: Satellite Awards: Mejor banda sonora. 4 nominaciones, incluyendo Mejor película
2012: National Board of Review (NBR): 10 mejores films, Mención especial Ben Affleck (dir.)
2012: Asociación de Críticos de Los Angeles: Mejor guión
2012: American Film Institute (AFI): Top 10 - Mejores películas del año
2012: Producers Guild of America (PGA): Mejor película






Irán, año 1979. Cuando la embajada de los Estados Unidos en Teherán es ocupada por seguidores del Ayatolá Jomeini para pedir la extradición del Sha de Persia, la CIA y el gobierno canadiense organizaron una operación para rescatar a seis diplomáticos estadounidenses que se habían refugiado en la casa del embajador de Canadá. Con este fin se recurrió a un experto en rescatar rehenes y se preparó el escenario para el rodaje de una película de ciencia-ficción, de título "Argo", en la que participaba un equipo de cazatalentos de Hollywood. La misión: ir a Teherán y hacer pasar a los diplomáticos por un equipo de filmación canadiense para traerlos de vuelta a casa.
























La pelicula NO tiene ninguna marca... solo colocamos el nombre de esta web en las capturas






Código:
General
Format                                   : Matroska
Format version                           : Version 2
File size                                : 9.81 GiB
Duration                                 : 2h 0mn
Overall bit rate                         : 11.7 Mbps
Movie name                               : www.club-hd.com
Encoded date                             : UTC 2013-02-02 04:02:09
Writing application                      : mkvmerge v5.7.0 ('The Whirlwind') built on Jul  8 2012 20:08:51
Writing library                          : libebml v1.2.3 + libmatroska v1.3.0

Video
ID                                       : 1
Format                                   : AVC
Format/Info                              : Advanced Video Codec
Format profile                           : High@L4.1
Format settings, CABAC                   : Yes
Format settings, ReFrames                : 5 frames
Codec ID                                 : V_MPEG4/ISO/AVC
Duration                                 : 2h 0mn
Bit rate                                 : 8 887 Kbps
Width                                    : 1 920 pixels
Height                                   : 800 pixels
Display aspect ratio                     : 2.40:1
Frame rate mode                          : Constant
Frame rate                               : 23.976 fps
Color space                              : YUV
Chroma subsampling                       : 4:2:0
Bit depth                                : 8 bits
Scan type                                : Progressive
Bits/(Pixel*Frame)                       : 0.241
Stream size                              : 7.27 GiB (74%)
Title                                    : www.club-hd.com
Writing library                          : x264 core 129 r2245 bc13772
Language                                 : English
Default                                  : Yes
Forced                                   : No

Audio #1
ID                                       : 2
Format                                   : AC-3
Format/Info                              : Audio Coding 3
Mode extension                           : CM (complete main)
Format settings, Endianness              : Big
Codec ID                                 : A_AC3
Duration                                 : 2h 0mn
Bit rate mode                            : Constant
Bit rate                                 : 640 Kbps
Channel(s)                               : 6 channels
Channel positions                        : Front: L C R, Side: L R, LFE
Sampling rate                            : 48.0 KHz
Bit depth                                : 16 bits
Compression mode                         : Lossy
Stream size                              : 551 MiB (5%)
Title                                    : www.club-hd.com  >>  Latino AC3 5.1
Language                                 : Spanish
Default                                  : Yes
Forced                                   : No

Audio #2
ID                                       : 3
Format                                   : AC-3
Format/Info                              : Audio Coding 3
Mode extension                           : CM (complete main)
Format settings, Endianness              : Big
Codec ID                                 : A_AC3
Duration                                 : 2h 0mn
Bit rate mode                            : Constant
Bit rate                                 : 640 Kbps
Channel(s)                               : 6 channels
Channel positions                        : Front: L C R, Side: L R, LFE
Sampling rate                            : 48.0 KHz
Bit depth                                : 16 bits
Compression mode                         : Lossy
Stream size                              : 551 MiB (5%)
Title                                    : www.club-hd.com  >>  Inglés AC3 5.1
Language                                 : English
Default                                  : No
Forced                                   : No

Audio #3
ID                                       : 4
Format                                   : DTS
Format/Info                              : Digital Theater Systems
Mode                                     : 16
Format settings, Endianness              : Big
Codec ID                                 : A_DTS
Duration                                 : 2h 0mn
Bit rate mode                            : Constant
Bit rate                                 : 1 509 Kbps
Channel(s)                               : 6 channels
Channel positions                        : Front: L C R, Side: L R, LFE
Sampling rate                            : 48.0 KHz
Bit depth                                : 24 bits
Compression mode                         : Lossy
Stream size                              : 1.27 GiB (13%)
Title                                    : www.club-hd.com  >>  Inglés DTS 5.1
Language                                 : English
Default                                  : No
Forced                                   : No

Text #1
ID                                       : 5
Format                                   : UTF-8
Codec ID                                 : S_TEXT/UTF8
Codec ID/Info                            : UTF-8 Plain Text
Title                                    : Forzados
Language                                 : Spanish
Default                                  : Yes
Forced                                   : No

Text #2
ID                                       : 6
Format                                   : UTF-8
Codec ID                                 : S_TEXT/UTF8
Codec ID/Info                            : UTF-8 Plain Text
Language                                 : Spanish
Default                                  : No
Forced                                   : No

Text #3
ID                                       : 7
Format                                   : UTF-8
Codec ID                                 : S_TEXT/UTF8
Codec ID/Info                            : UTF-8 Plain Text
Language                                 : English
Default                                  : No
Forced                                   : No

Menu
00:00:00.000                             : en:00:00:00.000
00:12:39.759                             : en:00:12:39.759
00:19:36.092                             : en:00:19:36.092
00:28:59.571                             : en:00:28:59.571
00:42:48.608                             : en:00:42:48.608
00:50:01.540                             : en:00:50:01.540
01:00:00.055                             : en:01:00:00.055
01:09:09.520                             : en:01:09:09.520
01:19:46.824                             : en:01:19:46.824
01:30:14.117                             : en:01:30:14.117
01:39:00.852                             : en:01:39:00.852
01:51:34.771                             : en:01:51:34.771









Enlaces de Mega y Fireload solo disponibles para Miembros VIP

Compra tu Membresía VIP y apoya a Club-HD!

ATENCIÓN! Tenemos TODO el material de Club-HD disponible por Mega y Fireload, enlaces 100% activos y online hasta la fecha

Llévate tus cuentas Mega PRO II gratis con tu membresía VIP!
Todos los posts vivos con links de Mega y Fireload.
Todo el material de Club-HD desbloqueado y sin publicidad.

Click Aquí para más información.




Enlaces de Mega y Fireload solo disponibles para Miembros VIP

Compra tu Membresía VIP y apoya a Club-HD!

ATENCIÓN! Tenemos TODO el material de Club-HD disponible por Mega y Fireload, enlaces 100% activos y online hasta la fecha

Llévate tus cuentas Mega PRO II gratis con tu membresía VIP!
Todos los posts vivos con links de Mega y Fireload.
Todo el material de Club-HD desbloqueado y sin publicidad.

Click Aquí para más información.



Enlaces de Mega y Fireload solo disponibles para Miembros VIP

Compra tu Membresía VIP y apoya a Club-HD!

ATENCIÓN! Tenemos TODO el material de Club-HD disponible por Mega y Fireload, enlaces 100% activos y online hasta la fecha

Llévate tus cuentas Mega PRO II gratis con tu membresía VIP!
Todos los posts vivos con links de Mega y Fireload.
Todo el material de Club-HD desbloqueado y sin publicidad.

Click Aquí para más información.



Para ver este contenido oculto, debes dar click en una de las siguientes reacciones : Like Like, Love Love, Haha Haha, Wow Wow, Sad Sad, Angry Angry
 
Última edición:

jovivaver

Well-known member
Colaborador
Miembro VIP
Registro
20 Sep 2012
Mensajes
1.206
Reacciones
1.598
Puntos
113

Reputation:

sunker-123

New member
Registro
27 Ago 2012
Mensajes
2.433
Reacciones
200
Puntos
0
Edad
30

Reputation:

Muchas gracias R21, pero me quedo con la versión en 720p...:dplgar:
 

JohnnyJRZ

New member
Registro
28 Ago 2012
Mensajes
182
Reacciones
14
Puntos
0

Reputation:

Hola gente linda e inteligente, mil gracias por todo, esta peli esta muy buena, un abrazo desde Argentina.
 

arkkangeldark

Well-known member
Registro
27 Ago 2012
Mensajes
3.445
Reacciones
576
Puntos
113
Edad
34
Ubicación
Torreon Coahuila

Reputation:

me hubiera esperado un dia mas, casualmente ayer apenas la vi y la tenia en ingles, no importa ahora a bajarla para luego verla en español, gracias revolver
 

Usuarios Que Están Viendo Este Tema (Total: 1, Miembros: 0, Invitados: 1)

Arriba