Arthur The King (2024) 1080p BDRip Latino-Inglés [Subt.Esp] (Aventuras. Drama. Basada en hechos reales)

LuchoO

責任者

Moderador
Uploader
Registro
15 Ago 2015
Mensajes
1.940
Reacciones (ptje)
29.011

cover.png



FICHA.TECNICA.png


Captura.JPG


SINOPSIS.PNG



Mikael Lindnord, el capitán del equipo sueco de atletismo de aventura, tuvo un extraño encuentro durante la carrera de 400 millas en la jungla ecuatoriana, cuando en su camino se cruzó un perro callejero. Tras el momento en el que Lindnord le alimentó, el perro le siguió por el resto del recorrido, haciendo incluso los tramos más complicados del planeta. Tras finalizar la carrera, Lindnord decidió adoptar la perro y llamarlo Arthur y llevarlo con él a Suecia.

7.0



TRAILER.PNG



CAPTURAS.PNG


atk.0001.jpeg


atk.0002.jpeg


atk.0003.jpeg


atk.0004.jpeg



MEDIAINFO.PNG

General
Complete name : Arthur The King 2024 BDrip 1080p H264 Dual.mkv
Format : Matroska
Format version : Version 4
File size : 11.2 GiB
Duration : 1 h 47 min
Overall bit rate : 15.0 Mb/s
Frame rate : 23.976 FPS
Movie name : [Club-HD] Arthur The King 2024 BDrip 1080p H264 Dual.mkv
Encoded date : 2024-05-20 21:11:50 UTC
Writing application : mkvmerge v77.0 ('Elemental') 64-bit
Writing library : libebml v1.4.4 + libmatroska v1.7.1

Video
ID : 1
Format : AVC
Format/Info : Advanced Video Codec
Format profile : [email protected]
Format settings : CABAC / 5 Ref Frames
Format settings, CABAC : Yes
Format settings, Reference frames : 5 frames
Codec ID : V_MPEG4/ISO/AVC
Duration : 1 h 47 min
Bit rate : 14.1 Mb/s
Width : 1 920 pixels
Height : 800 pixels
Display aspect ratio : 2.40:1
Frame rate mode : Constant
Frame rate : 23.976 (24000/1001) FPS
Color space : YUV
Chroma subsampling : 4:2:0
Bit depth : 8 bits
Scan type : Progressive
Bits/(Pixel*Frame) : 0.384
Stream size : 10.6 GiB (94%)
Writing library : x264 core 164 r3190 7ed753b
Encoding settings : cabac=1 / ref=5 / deblock=1:-3:-3 / analyse=0x3:0x133 / me=umh / subme=9 / psy=1 / psy_rd=1.00:0.00 / mixed_ref=1 / me_range=16 / chroma_me=1 / trellis=2 / 8x8dct=1 / cqm=0 / deadzone=21,11 / fast_pskip=0 / chroma_qp_offset=-2 / threads=25 / lookahead_threads=2 / sliced_threads=0 / nr=0 / decimate=1 / interlaced=0 / bluray_compat=0 / constrained_intra=0 / bframes=3 / b_pyramid=2 / b_adapt=2 / b_bias=0 / direct=3 / weightb=1 / open_gop=0 / weightp=2 / keyint=250 / keyint_min=23 / scenecut=40 / intra_refresh=0 / rc_lookahead=60 / rc=crf / mbtree=1 / crf=13.0 / qcomp=0.60 / qpmin=0 / qpmax=69 / qpstep=4 / ip_ratio=1.40 / aq=1:1.00
Language : English
Default : Yes
Forced : No

Audio #1
ID : 2
Format : AC-3
Format/Info : Audio Coding 3
Commercial name : Dolby Digital
Codec ID : A_AC3
Duration : 1 h 47 min
Bit rate mode : Constant
Bit rate : 384 kb/s
Channel(s) : 6 channels
Channel layout : L R C LFE Ls Rs
Sampling rate : 48.0 kHz
Frame rate : 31.250 FPS (1536 SPF)
Compression mode : Lossy
Stream size : 294 MiB (3%)
Language : Spanish (Latin America)
Service kind : Complete Main
Default : Yes
Forced : No

Audio #2
ID : 3
Format : AC-3
Format/Info : Audio Coding 3
Commercial name : Dolby Digital
Codec ID : A_AC3
Duration : 1 h 47 min
Bit rate mode : Constant
Bit rate : 384 kb/s
Channel(s) : 6 channels
Channel layout : L R C LFE Ls Rs
Sampling rate : 48.0 kHz
Frame rate : 31.250 FPS (1536 SPF)
Compression mode : Lossy
Stream size : 294 MiB (3%)
Language : English
Service kind : Complete Main
Default : No
Forced : No

Text #1
ID : 4
Format : UTF-8
Codec ID : S_TEXT/UTF8
Codec ID/Info : UTF-8 Plain Text
Duration : 1 h 45 min
Bit rate : 63 b/s
Frame rate : 0.248 FPS
Count of elements : 1574
Stream size : 49.5 KiB (0%)
Language : Spanish (Latin America)
Default : No
Forced : No

Text #2
ID : 5
Format : PGS
Muxing mode : zlib
Codec ID : S_HDMV/PGS
Codec ID/Info : Picture based subtitle format used on BDs/HD-DVDs
Duration : 1 h 45 min
Bit rate : 47.4 kb/s
Frame rate : 0.572 FPS
Count of elements : 3626
Stream size : 35.8 MiB (0%)
Language : English
Default : No
Forced : No

Text #3
ID : 6
Format : PGS
Muxing mode : zlib
Codec ID : S_HDMV/PGS
Codec ID/Info : Picture based subtitle format used on BDs/HD-DVDs
Duration : 1 h 45 min
Bit rate : 39.1 kb/s
Frame rate : 0.496 FPS
Count of elements : 3148
Stream size : 29.6 MiB (0%)
Language : Spanish
Default : No
Forced : No

Text #4
ID : 7
Format : PGS
Muxing mode : zlib
Codec ID : S_HDMV/PGS
Codec ID/Info : Picture based subtitle format used on BDs/HD-DVDs
Duration : 1 h 38 min
Bit rate : 40.5 kb/s
Frame rate : 0.510 FPS
Count of elements : 3012
Stream size : 28.5 MiB (0%)
Language : French
Default : No
Forced : No

Menu
00:00:00.000 : Chapter 01
00:03:26.206 : Chapter 02
00:09:29.569 : Chapter 03
00:19:48.187 : Chapter 04
00:26:08.567 : Chapter 05
00:32:27.946 : Chapter 06
00:37:29.247 : Chapter 07
00:45:23.721 : Chapter 08
00:56:49.615 : Chapter 09
01:03:10.996 : Chapter 10
01:13:16.392 : Chapter 11
01:19:46.782 : Chapter 12
01:24:11.046 : Chapter 13
01:29:51.386 : Chapter 14
01:37:04.068 : Chapter 15
01:40:09.003 : Chapter 16


DESCARGA.PNG




⭐ 1 LINK MKV VIP ⭐

Mega.png

Tenemos TODO el material de Club-HD disponible por Mega, enlaces 100% activos y online hasta la fecha

Llévate tus cuentas Mega PRO III gratis con tu membresía VIP!
Todos los posts vivos con links de Mega.
Todo el material de Club-HD desbloqueado y sin publicidad.

Obtén más información sobre nuestras Membresías VIP


LINKS FREE PÚBLICOS

Fireload.png


¡Click aquí para descargar desde Fireload!


1cloudfile.png


¡Click aquí para descargar desde 1cloudfile!


"Solo Audio Latino"
 
Gracias Lucho amo las pelis de peluditosssss y mas las basadas en hechos realesssssss :aplausos:
 
Gracias amigos por este aporte, un saludo!!!
 

cover.png



FICHA.TECNICA.png


Captura.JPG


SINOPSIS.PNG



Mikael Lindnord, el capitán del equipo sueco de atletismo de aventura, tuvo un extraño encuentro durante la carrera de 400 millas en la jungla ecuatoriana, cuando en su camino se cruzó un perro callejero. Tras el momento en el que Lindnord le alimentó, el perro le siguió por el resto del recorrido, haciendo incluso los tramos más complicados del planeta. Tras finalizar la carrera, Lindnord decidió adoptar la perro y llamarlo Arthur y llevarlo con él a Suecia.

7.0



TRAILER.PNG



CAPTURAS.PNG


atk.0001.jpeg


atk.0002.jpeg


atk.0003.jpeg


atk.0004.jpeg



MEDIAINFO.PNG

General
Complete name : Arthur The King 2024 BDrip 1080p H264 Dual.mkv
Format : Matroska
Format version : Version 4
File size : 11.2 GiB
Duration : 1 h 47 min
Overall bit rate : 15.0 Mb/s
Frame rate : 23.976 FPS
Movie name : [Club-HD] Arthur The King 2024 BDrip 1080p H264 Dual.mkv
Encoded date : 2024-05-20 21:11:50 UTC
Writing application : mkvmerge v77.0 ('Elemental') 64-bit
Writing library : libebml v1.4.4 + libmatroska v1.7.1

Video
ID : 1
Format : AVC
Format/Info : Advanced Video Codec
Format profile : [email protected]
Format settings : CABAC / 5 Ref Frames
Format settings, CABAC : Yes
Format settings, Reference frames : 5 frames
Codec ID : V_MPEG4/ISO/AVC
Duration : 1 h 47 min
Bit rate : 14.1 Mb/s
Width : 1 920 pixels
Height : 800 pixels
Display aspect ratio : 2.40:1
Frame rate mode : Constant
Frame rate : 23.976 (24000/1001) FPS
Color space : YUV
Chroma subsampling : 4:2:0
Bit depth : 8 bits
Scan type : Progressive
Bits/(Pixel*Frame) : 0.384
Stream size : 10.6 GiB (94%)
Writing library : x264 core 164 r3190 7ed753b
Encoding settings : cabac=1 / ref=5 / deblock=1:-3:-3 / analyse=0x3:0x133 / me=umh / subme=9 / psy=1 / psy_rd=1.00:0.00 / mixed_ref=1 / me_range=16 / chroma_me=1 / trellis=2 / 8x8dct=1 / cqm=0 / deadzone=21,11 / fast_pskip=0 / chroma_qp_offset=-2 / threads=25 / lookahead_threads=2 / sliced_threads=0 / nr=0 / decimate=1 / interlaced=0 / bluray_compat=0 / constrained_intra=0 / bframes=3 / b_pyramid=2 / b_adapt=2 / b_bias=0 / direct=3 / weightb=1 / open_gop=0 / weightp=2 / keyint=250 / keyint_min=23 / scenecut=40 / intra_refresh=0 / rc_lookahead=60 / rc=crf / mbtree=1 / crf=13.0 / qcomp=0.60 / qpmin=0 / qpmax=69 / qpstep=4 / ip_ratio=1.40 / aq=1:1.00
Language : English
Default : Yes
Forced : No

Audio #1
ID : 2
Format : AC-3
Format/Info : Audio Coding 3
Commercial name : Dolby Digital
Codec ID : A_AC3
Duration : 1 h 47 min
Bit rate mode : Constant
Bit rate : 384 kb/s
Channel(s) : 6 channels
Channel layout : L R C LFE Ls Rs
Sampling rate : 48.0 kHz
Frame rate : 31.250 FPS (1536 SPF)
Compression mode : Lossy
Stream size : 294 MiB (3%)
Language : Spanish (Latin America)
Service kind : Complete Main
Default : Yes
Forced : No

Audio #2
ID : 3
Format : AC-3
Format/Info : Audio Coding 3
Commercial name : Dolby Digital
Codec ID : A_AC3
Duration : 1 h 47 min
Bit rate mode : Constant
Bit rate : 384 kb/s
Channel(s) : 6 channels
Channel layout : L R C LFE Ls Rs
Sampling rate : 48.0 kHz
Frame rate : 31.250 FPS (1536 SPF)
Compression mode : Lossy
Stream size : 294 MiB (3%)
Language : English
Service kind : Complete Main
Default : No
Forced : No

Text #1
ID : 4
Format : UTF-8
Codec ID : S_TEXT/UTF8
Codec ID/Info : UTF-8 Plain Text
Duration : 1 h 45 min
Bit rate : 63 b/s
Frame rate : 0.248 FPS
Count of elements : 1574
Stream size : 49.5 KiB (0%)
Language : Spanish (Latin America)
Default : No
Forced : No

Text #2
ID : 5
Format : PGS
Muxing mode : zlib
Codec ID : S_HDMV/PGS
Codec ID/Info : Picture based subtitle format used on BDs/HD-DVDs
Duration : 1 h 45 min
Bit rate : 47.4 kb/s
Frame rate : 0.572 FPS
Count of elements : 3626
Stream size : 35.8 MiB (0%)
Language : English
Default : No
Forced : No

Text #3
ID : 6
Format : PGS
Muxing mode : zlib
Codec ID : S_HDMV/PGS
Codec ID/Info : Picture based subtitle format used on BDs/HD-DVDs
Duration : 1 h 45 min
Bit rate : 39.1 kb/s
Frame rate : 0.496 FPS
Count of elements : 3148
Stream size : 29.6 MiB (0%)
Language : Spanish
Default : No
Forced : No

Text #4
ID : 7
Format : PGS
Muxing mode : zlib
Codec ID : S_HDMV/PGS
Codec ID/Info : Picture based subtitle format used on BDs/HD-DVDs
Duration : 1 h 38 min
Bit rate : 40.5 kb/s
Frame rate : 0.510 FPS
Count of elements : 3012
Stream size : 28.5 MiB (0%)
Language : French
Default : No
Forced : No

Menu
00:00:00.000 : Chapter 01
00:03:26.206 : Chapter 02
00:09:29.569 : Chapter 03
00:19:48.187 : Chapter 04
00:26:08.567 : Chapter 05
00:32:27.946 : Chapter 06
00:37:29.247 : Chapter 07
00:45:23.721 : Chapter 08
00:56:49.615 : Chapter 09
01:03:10.996 : Chapter 10
01:13:16.392 : Chapter 11
01:19:46.782 : Chapter 12
01:24:11.046 : Chapter 13
01:29:51.386 : Chapter 14
01:37:04.068 : Chapter 15
01:40:09.003 : Chapter 16


DESCARGA.PNG





"Solo Audio Latino"
graciassssssssssssssssssssssssssss
 
Volver