At Any Price (2012) 720p BDRip Audio Inglés [Subt. Esp] (Drama)

Maestro Revolver 1

Maestro Revolver

Well-known member
Miembro del Staff
Administrador
Registro
9 Ago 2012
Mensajes
3.567








TÍTULO ORIGINAL: At Any Price
AÑO: 2012
DURACIÓN: 105 min.
PAÍS: USA
DIRECTOR: Ramin Bahrani
GUIÓN: Ramin Bahrani, Hallie Elizabeth Newton
REPARTO: Zac Efron, Dennis Quaid, Heather Graham, Clancy Brown, Kim Dickens
PRODUCTORA: Coproducción EEUU-GB; Sony Pictures Classics / Black Bear Pictures / Killer Films / Treehouse Pictures
GÉNERO: Drama | Coches / Automovilismo. Vida rural (Norteamérica)
: http://www.imdb.com/title/tt1937449/






Henry Whipple (Dennis Quaid) es un granjero del medio oeste americano que lo que más desea en el mundo es que su hijo Dean (Zac Efron) se haga cargo del negocio familiar. Pero Dean tiene otros planes: sueña con una carrera como piloto de carreras.
























La pelicula NO tiene ninguna marca... solo colocamos el nombre de esta web en las capturas






Código:
General
Format                                   : Matroska
Format version                           : Version 2
File size                                : 3.72 GiB
Duration                                 : 1h 44mn
Overall bit rate                         : 5 113 Kbps
Movie name                               : www.club-hd.com
Encoded date                             : UTC 2013-07-01 01:54:23
Writing application                      : mkvmerge v5.7.0 ('The Whirlwind') built on Jul  8 2012 20:08:51
Writing library                          : libebml v1.2.3 + libmatroska v1.3.0

Video
ID                                       : 1
Format                                   : AVC
Format/Info                              : Advanced Video Codec
Format profile                           : High@L4.1
Format settings, CABAC                   : Yes
Format settings, ReFrames                : 9 frames
Codec ID                                 : V_MPEG4/ISO/AVC
Duration                                 : 1h 44mn
Bit rate                                 : 4 563 Kbps
Width                                    : 1 280 pixels
Height                                   : 720 pixels
Display aspect ratio                     : 16:9
Frame rate mode                          : Constant
Frame rate                               : 23.976 fps
Color space                              : YUV
Chroma subsampling                       : 4:2:0
Bit depth                                : 8 bits
Scan type                                : Progressive
Bits/(Pixel*Frame)                       : 0.206
Stream size                              : 3.32 GiB (89%)
Language                                 : English
Default                                  : Yes
Forced                                   : No

Audio
ID                                       : 2
Format                                   : AC-3
Format/Info                              : Audio Coding 3
Mode extension                           : CM (complete main)
Format settings, Endianness              : Big
Codec ID                                 : A_AC3
Duration                                 : 1h 44mn
Bit rate mode                            : Constant
Bit rate                                 : 448 Kbps
Channel(s)                               : 6 channels
Channel positions                        : Front: L C R, Side: L R, LFE
Sampling rate                            : 48.0 KHz
Bit depth                                : 16 bits
Compression mode                         : Lossy
Stream size                              : 333 MiB (9%)
Language                                 : English
Default                                  : Yes
Forced                                   : No

Text
ID                                       : 3
Format                                   : UTF-8
Codec ID                                 : S_TEXT/UTF8
Codec ID/Info                            : UTF-8 Plain Text
Language                                 : Spanish
Default                                  : Yes
Forced                                   : No








Enlaces de Mega y Google Drive solo disponibles para Miembros VIP

Compra tu Membresía VIP y apoya a Club-HD!

ATENCIÓN! Tenemos TODO el material de Club-HD disponible por Mega y Google Drive, enlaces 100% activos y online hasta la fecha

Llévate tus cuentas Mega PRO III gratis con tu membresía VIP!
Todos los posts vivos con links de Mega y Google Drive.
Todo el material de Club-HD desbloqueado y sin publicidad.

Click Aquí para más información.


Para ver este contenido oculto, debes dar click en una de las siguientes reacciones : Like Like, Love Love, Haha Haha, Wow Wow, Sad Sad, Angry Angry



 
Última edición por un moderador:
Mate78 0

Mate78

Ladron de mi cerebro
Ex Staff
Miembro VIP
Registro
27 Ago 2012
Mensajes
1.244
Siempre Sorprendiendo vos Bestia23 Tb_up3 !!! graciasss:dplgar:
 

Usuarios Que Están Viendo Este Tema (Total: 1, Miembros: 0, Invitados: 1)

Quién Leyó Este Tema (Total Miembros: 2)

Arriba