Atlantis: The Lost Empire (2001) m-720p BDRip Dual Latino-Inglés [Subt. Esp] (Animación)

Maestro Revolver

Well-known member
Miembro del Staff
Administrador
Registro
9 Ago 2012
Mensajes
3.567








TÍTULO ORIGINAL: Atlantis: The Lost Empire
AÑO: 2001
DURACIÓN: 95 min.
PAÍS: USA
DIRECTOR: Gary Trousdale, Kirk Wise
GUIÓN: Tab Murphy (Historia: Kirk Wise, Gary Trousdale, Joss Whedon, Bryce Zabel, Jackie Zabel, Tab Murphy)
REPARTO: Animation
PRODUCTORA: Toon City / Walt Disney Feature Animation / Walt Disney Pictures
GÉNERO: Aventuras. Fantástico | Steampunk. Años 1910-1919
: http://www.imdb.com/title/tt0230011/






Un joven aventurero llamado Milo encuentra un antiguo diario que contiene pistas de cómo llegar a Atlantis, el mítico reino hundido. Junto a otros intrépidos personajes Milo decide embarcarse en el Ulises, un impresionante submarino, en una arriesgada expedición al fondo del mar.
























La pelicula NO tiene ninguna marca... solo colocamos el nombre de esta web en las capturas






Código:
General
Format                                   : Matroska
Format version                           : Version 2
File size                                : 2.82 GiB
Duration                                 : 1h 35mn
Overall bit rate                         : 4 211 Kbps
Movie name                               : www.club-hd.com
Encoded date                             : UTC 2013-07-24 05:03:41
Writing application                      : mkvmerge v5.7.0 ('The Whirlwind') built on Jul  8 2012 20:08:51
Writing library                          : libebml v1.2.3 + libmatroska v1.3.0

Video
ID                                       : 1
Format                                   : AVC
Format/Info                              : Advanced Video Codec
Format profile                           : High@L4.1
Format settings, CABAC                   : Yes
Format settings, ReFrames                : 12 frames
Codec ID                                 : V_MPEG4/ISO/AVC
Duration                                 : 1h 35mn
Bit rate                                 : 2 847 Kbps
Width                                    : 1 280 pixels
Height                                   : 538 pixels
Display aspect ratio                     : 2.40:1
Frame rate mode                          : Constant
Frame rate                               : 23.976 fps
Color space                              : YUV
Chroma subsampling                       : 4:2:0
Bit depth                                : 8 bits
Scan type                                : Progressive
Bits/(Pixel*Frame)                       : 0.172
Stream size                              : 1.91 GiB (68%)
Title                                    : www.club-hd.com
Writing library                          : x264 core 132 r2309kMod 3b1f1f7
Language                                 : English
Default                                  : Yes
Forced                                   : No

Audio #1
ID                                       : 2
Format                                   : AC-3
Format/Info                              : Audio Coding 3
Mode extension                           : CM (complete main)
Format settings, Endianness              : Big
Codec ID                                 : A_AC3
Duration                                 : 1h 35mn
Bit rate mode                            : Constant
Bit rate                                 : 640 Kbps
Channel(s)                               : 6 channels
Channel positions                        : Front: L C R, Side: L R, LFE
Sampling rate                            : 48.0 KHz
Bit depth                                : 16 bits
Compression mode                         : Lossy
Stream size                              : 439 MiB (15%)
Title                                    : www.club-hd.com  >>  Latino
Language                                 : Spanish
Default                                  : Yes
Forced                                   : No

Audio #2
ID                                       : 3
Format                                   : AC-3
Format/Info                              : Audio Coding 3
Mode extension                           : CM (complete main)
Format settings, Endianness              : Big
Codec ID                                 : A_AC3
Duration                                 : 1h 35mn
Bit rate mode                            : Constant
Bit rate                                 : 640 Kbps
Channel(s)                               : 6 channels
Channel positions                        : Front: L C R, Side: L R, LFE
Sampling rate                            : 48.0 KHz
Bit depth                                : 16 bits
Compression mode                         : Lossy
Stream size                              : 439 MiB (15%)
Title                                    : www.club-hd.com  >>  Inglés
Language                                 : English
Default                                  : No
Forced                                   : No

Text
ID                                       : 4
Format                                   : UTF-8
Codec ID                                 : S_TEXT/UTF8
Codec ID/Info                            : UTF-8 Plain Text
Language                                 : Spanish
Default                                  : No
Forced                                   : No

Menu
00:00:00.000                             : en:Prologue
00:02:30.817                             : en:Milo's Presentation
00:07:55.099                             : en:A Most Intriguing Proposition
00:13:42.530                             : en:The Expedition Begins
00:18:47.126                             : en:The Lair of the Leviathan
00:26:25.125                             : en:Convoy
00:31:32.807                             : en:New Friends
00:36:16.716                             : en:Fire!
00:40:53.284                             : en:Welcome to the City of Atlantis
00:46:56.230                             : en:Questions
00:53:53.355                             : en:The Missing Page
00:59:41.119                             : en:The Heart of Atlantis
01:06:22.228                             : en:A Change of Heart
01:09:40.175                             : en:"Save Atlantis, Save My Daughter"
01:13:09.343                             : en:The Right Thing to Do
01:19:43.779                             : en:Saving Atlantis
01:25:10.772                             : en:Proof
01:28:02.568                             : en:A Place Among Kings
01:29:27.028                             : en:End Credits
01:35:43.070                             : en:01:35:43.070








Enlaces de Mega y Google Drive solo disponibles para Miembros VIP

Compra tu Membresía VIP y apoya a Club-HD!

ATENCIÓN! Tenemos TODO el material de Club-HD disponible por Mega y Google Drive, enlaces 100% activos y online hasta la fecha

Llévate tus cuentas Mega PRO III gratis con tu membresía VIP!
Todos los posts vivos con links de Mega y Google Drive.
Todo el material de Club-HD desbloqueado y sin publicidad.

Click Aquí para más información.




Enlaces de Mega y Google Drive solo disponibles para Miembros VIP

Compra tu Membresía VIP y apoya a Club-HD!

ATENCIÓN! Tenemos TODO el material de Club-HD disponible por Mega y Google Drive, enlaces 100% activos y online hasta la fecha

Llévate tus cuentas Mega PRO III gratis con tu membresía VIP!
Todos los posts vivos con links de Mega y Google Drive.
Todo el material de Club-HD desbloqueado y sin publicidad.

Click Aquí para más información.



Para ver este contenido oculto, debes dar click en una de las siguientes reacciones : Like Like, Love Love, Haha Haha, Wow Wow, Sad Sad, Angry Angry



Para ver este contenido oculto, debes dar click en una de las siguientes reacciones : Like Like, Love Love, Haha Haha, Wow Wow, Sad Sad, Angry Angry
 
Última edición por un moderador:

sharklui

Well-known member
Miembro VIP
Registro
28 Ago 2012
Mensajes
1.026
Ubicación
The Matrix
Tu afan de traernos lo mejor es tu caracteristica mas sobresaliente :dplgar: y la alta calidad de tus aportes son un rasgo que esta siempre presente :dplgar:, eres el mejor Revol y de eso no hay duda :aplausos:
 

Usuarios Que Están Viendo Este Tema (Total: 1, Miembros: 0, Invitados: 1)

Quién Leyó Este Tema (Total Miembros: 4)

Arriba