Austenland (2013) 720p BDRip Dual Latino-Inglés [Subt. Esp] (Comedia. Romance)

Maestro Revolver

Administrador
Registro
9 Ago 2012
Mensajes
3.157
Reacciones (ptje)
55.166


Austenland.jpg




FichaTecnica.jpg


TÍTULO ORIGINAL: Austenland
AÑO: 2013
DURACIÓN: 97 min.
PAÍS: Reino Unido
DIRECTOR: Jerusha Hess
GUIÓN: Jerusha Hess, Shannon Hale
REPARTO: Keri Russell, JJ Feild, Bret McKenzie, Jennifer Coolidge, Georgia King, James Callis, Jane Seymour
PRODUCTORA: Coproducción EEUU-Reino Unido; Fickle Fish Films / Moxie Pictures
GÉNERO: Comedia. Romance | Comedia romántica. Cine independiente USA
imdb-logo.png
: http://www.imdb.com/title/tt1985019/

Premios: 2013: Festival de Sundance: Sección oficial largometrajes a concurso




Sinopsis.jpg


“Autenland” cuenta la historia de Jane Hayes, una chica de Nueva York que está obsesionada con el Fitzwilliam Darcy que interpretó Colin Firth en una adaptación de la BBC de “Orgullo y prejuicio”, la novela de Jane Austen. Semejante hecho no hace otra cosa que arruinar su vida amorosa, puesto que ningún hombre de carne y hueso se puede comparar a él. Es entonces cuando decide gastar todos sus ahorros en un viaje a un complejo turístico inglés destinado a todas las mujeres a las que les encantan las obras de la escritora británica, enamorándose el actor que interpreta a Darcy de la protagonista de la historia.




Trailer.jpg






Capturas.jpg


1.jpg


2.jpg


3.jpg


4.jpg


5.jpg


6.jpg


La pelicula NO tiene ninguna marca... solo colocamos el nombre de esta web en las capturas




MediaInfo.jpg


Código:
General
Format                                   : Matroska
Format version                           : Version 2
File size                                : 2.46 GiB
Duration                                 : 1h 36mn
Overall bit rate                         : 3 629 Kbps
Movie name                               : www.club-hd.com
Encoded date                             : UTC 2014-01-15 01:25:12
Writing application                      : mkvmerge v5.7.0 ('The Whirlwind') built on Jul  8 2012 20:08:51
Writing library                          : libebml v1.2.3 + libmatroska v1.3.0

Video
ID                                       : 1
Format                                   : AVC
Format/Info                              : Advanced Video Codec
Format profile                           : [email protected]
Format settings, CABAC                   : Yes
Format settings, ReFrames                : 9 frames
Muxing mode                              : Header stripping
Codec ID                                 : V_MPEG4/ISO/AVC
Duration                                 : 1h 36mn
Bit rate                                 : 2 731 Kbps
Width                                    : 1 280 pixels
Height                                   : 534 pixels
Display aspect ratio                     : 2.40:1
Frame rate mode                          : Constant
Frame rate                               : 23.976 fps
Color space                              : YUV
Chroma subsampling                       : 4:2:0
Bit depth                                : 8 bits
Scan type                                : Progressive
Bits/(Pixel*Frame)                       : 0.167
Stream size                              : 1.80 GiB (73%)
Title                                    : www.club-hd.com
Writing library                          : x264 core 140 r2377 1ca7bb9
Language                                 : English
Default                                  : Yes
Forced                                   : No

Audio #1
ID                                       : 2
Format                                   : AC-3
Format/Info                              : Audio Coding 3
Mode extension                           : CM (complete main)
Format settings, Endianness              : Big
Muxing mode                              : Header stripping
Codec ID                                 : A_AC3
Duration                                 : 1h 36mn
Bit rate mode                            : Constant
Bit rate                                 : 448 Kbps
Channel(s)                               : 6 channels
Channel positions                        : Front: L C R, Side: L R, LFE
Sampling rate                            : 48.0 KHz
Bit depth                                : 16 bits
Compression mode                         : Lossy
Stream size                              : 311 MiB (12%)
Title                                    : www.club-hd.com  >>  Latino
Language                                 : Spanish
Default                                  : Yes
Forced                                   : No

Audio #2
ID                                       : 3
Format                                   : AC-3
Format/Info                              : Audio Coding 3
Mode extension                           : CM (complete main)
Format settings, Endianness              : Big
Muxing mode                              : Header stripping
Codec ID                                 : A_AC3
Duration                                 : 1h 36mn
Bit rate mode                            : Constant
Bit rate                                 : 448 Kbps
Channel(s)                               : 6 channels
Channel positions                        : Front: L C R, Side: L R, LFE
Sampling rate                            : 48.0 KHz
Bit depth                                : 16 bits
Compression mode                         : Lossy
Stream size                              : 311 MiB (12%)
Title                                    : www.club-hd.com  >>  Inglés
Language                                 : English
Default                                  : No
Forced                                   : No

Text
ID                                       : 4
Format                                   : UTF-8
Codec ID                                 : S_TEXT/UTF8
Codec ID/Info                            : UTF-8 Plain Text
Language                                 : Spanish
Default                                  : No
Forced                                   : No

Menu
00:00:00.000                             : en:Chapter 1
00:05:45.720                             : en:Chapter 2
00:12:58.778                             : en:Chapter 3
00:20:05.162                             : en:Chapter 4
00:28:53.190                             : en:Chapter 5
00:35:40.221                             : en:Chapter 6
00:39:54.058                             : en:Chapter 7
00:43:46.916                             : en:Chapter 8
00:45:03.117                             : en:Chapter 9
00:49:59.246                             : en:Chapter 10
00:56:44.484                             : en:Chapter 11
01:04:45.298                             : en:Chapter 12
01:11:34.540                             : en:Chapter 13
01:18:50.059                             : en:Chapter 14
01:23:15.490                             : en:Chapter 15
01:27:13.562                             : en:Chapter 16




Descarga.jpg



MEGA.jpg

Tenemos TODO el material de Club-HD disponible por Mega, enlaces 100% activos y online hasta la fecha

Llévate tus cuentas Mega PRO III gratis con tu membresía VIP!
Todos los posts vivos con links de Mega.
Todo el material de Club-HD desbloqueado y sin publicidad.

Obtén más información sobre nuestras Membresías VIP



UPLOADED_BANNER.png

Para ver este contenido oculto, debes dar click en el botón"Like", o cualquiera de las otras reacciones:

Me Gusta Me Gusta, Me Encanta Me Encanta, Jaja Jaja, Wow Wow, Triste Triste, Molesto Molesto

 
Última edición por un moderador:
Volver