Austin Powers in Goldmember (2002) 1080p BDRip Dual Latino-Inglés [Subt. Esp] (Comedia)

Maestro Revolver

Well-known member
Miembro del Staff
Administrador
Registro
9 Ago 2012
Mensajes
3.567








TÍTULO ORIGINAL: Austin Powers in Goldmember
AÑO: 2002
DURACIÓN: 94 min.
PAÍS: USA
DIRECTOR: Jay Roach
GUIÓN: Mike Myers, Michael McCullers (Personajes: Mike Myers)
REPARTO: Mike Myers, Beyoncé Knowles, Michael Caine, Seth Green, Verne Troyer, Mindy Sterling, Robert Wagner, Michael York, Fred Savage, Nobu Matsuhisa, Nathan Lane, Aaron Himelstein, Josh Zuckerman, Diane Mizota, Carrie Ann Inaba, Tom Cruise, Gwyneth Paltrow, Kevin Spacey, Danny DeVito, John Travolta, Steven Spielberg, Quincy Jones, Britney Spears, Ozzy Osbourne, Masi Oka, Clint Howard, Burt Bacharach
PRODUCTORA: New Line Cinema
GÉNERO: Comedia | Parodia. Espionaje. Secuela
: http://www.imdb.com/title/tt0295178/






El agente Austin Powers se enfrenta de nuevo al doctor Maligno y a su cómplice Mini-Yo, quien tras escapar de una cárcel de máxima seguridad obliga a Austin a ponerse de nuevo en acción. Miembro de Oro, un misterioso personaje que ayuda al doctor Maligno en su plan para dominar el mundo, viaja en el tiempo y secuestra al padre del protagonista.
























La pelicula NO tiene ninguna marca... solo colocamos el nombre de esta web en las capturas






Código:
General
Format                                   : Matroska
Format version                           : Version 2
File size                                : 11.4 GiB
Duration                                 : 1h 34mn
Overall bit rate                         : 17.3 Mbps
Movie name                               : www.club-hd.com
Encoded date                             : UTC 2013-11-19 01:14:26
Writing application                      : mkvmerge v5.7.0 ('The Whirlwind') built on Jul  8 2012 20:08:51
Writing library                          : libebml v1.2.3 + libmatroska v1.3.0
Attachment                               : Yes / Yes

Video
ID                                       : 1
Format                                   : AVC
Format/Info                              : Advanced Video Codec
Format profile                           : High@L4.1
Format settings, CABAC                   : Yes
Format settings, ReFrames                : 5 frames
Codec ID                                 : V_MPEG4/ISO/AVC
Duration                                 : 1h 34mn
Bit rate                                 : 15.0 Mbps
Width                                    : 1 920 pixels
Height                                   : 816 pixels
Display aspect ratio                     : 2.35:1
Frame rate mode                          : Constant
Frame rate                               : 23.976 fps
Color space                              : YUV
Chroma subsampling                       : 4:2:0
Bit depth                                : 8 bits
Scan type                                : Progressive
Bits/(Pixel*Frame)                       : 0.399
Stream size                              : 9.67 GiB (85%)
Title                                    : www.club-hd.com
Writing library                          : x264 core 129 r2245kMod bc13772
Language                                 : English
Default                                  : Yes
Forced                                   : No
Matrix coefficients                      : BT.709

Audio #1
ID                                       : 2
Format                                   : AC-3
Format/Info                              : Audio Coding 3
Mode extension                           : CM (complete main)
Format settings, Endianness              : Big
Codec ID                                 : A_AC3
Duration                                 : 1h 34mn
Bit rate mode                            : Constant
Bit rate                                 : 192 Kbps
Channel(s)                               : 2 channels
Channel positions                        : Front: L R
Sampling rate                            : 48.0 KHz
Bit depth                                : 16 bits
Compression mode                         : Lossy
Stream size                              : 130 MiB (1%)
Title                                    : www.club-hd.com  >>  Latino AC3 2.0
Language                                 : Spanish
Default                                  : Yes
Forced                                   : No

Audio #2
ID                                       : 3
Format                                   : AC-3
Format/Info                              : Audio Coding 3
Mode extension                           : CM (complete main)
Format settings, Endianness              : Big
Codec ID                                 : A_AC3
Duration                                 : 1h 34mn
Bit rate mode                            : Constant
Bit rate                                 : 640 Kbps
Channel(s)                               : 6 channels
Channel positions                        : Front: L C R, Side: L R, LFE
Sampling rate                            : 48.0 KHz
Bit depth                                : 16 bits
Compression mode                         : Lossy
Stream size                              : 433 MiB (4%)
Title                                    : www.club-hd.com  >>  Inglés AC3 5.1
Language                                 : English
Default                                  : No
Forced                                   : No

Audio #3
ID                                       : 4
Format                                   : DTS
Format/Info                              : Digital Theater Systems
Mode                                     : 16
Format settings, Endianness              : Big
Codec ID                                 : A_DTS
Duration                                 : 1h 34mn
Bit rate mode                            : Constant
Bit rate                                 : 1 509 Kbps
Channel(s)                               : 6 channels
Channel positions                        : Front: L C R, Side: L R, LFE
Sampling rate                            : 48.0 KHz
Bit depth                                : 24 bits
Compression mode                         : Lossy
Stream size                              : 1 020 MiB (9%)
Title                                    : www.club-hd.com  >>  Inglés DTS 5.1
Language                                 : English
Default                                  : No
Forced                                   : No

Text #1
ID                                       : 5
Format                                   : UTF-8
Codec ID                                 : S_TEXT/UTF8
Codec ID/Info                            : UTF-8 Plain Text
Title                                    : Forzados
Language                                 : Spanish
Default                                  : Yes
Forced                                   : No

Text #2
ID                                       : 6
Format                                   : UTF-8
Codec ID                                 : S_TEXT/UTF8
Codec ID/Info                            : UTF-8 Plain Text
Language                                 : Spanish
Default                                  : No
Forced                                   : No

Menu
00:00:00.000                             : en:Lights! Camera! Austin!
00:07:30.116                             : en:The Perfect Plan
00:13:07.203                             : en:Daddy Issues
00:23:44.464                             : en:Destination 1975
00:33:46.190                             : en:Hard Knock Life
00:38:14.833                             : en:The Mole
00:40:51.532                             : en:Meet the Fahza
00:46:36.710                             : en:Tokyo Tangle
00:52:40.114                             : en:Son's Present
00:54:53.540                             : en:Mr. Roboto
01:03:29.930                             : en:Father Son Spat
01:05:21.626                             : en:Mini-Defector
01:09:29.790                             : en:Evil Demands
01:11:25.863                             : en:Clone of Burden
01:17:39.154                             : en:Sons of the Father
01:22:51.675                             : en:Goldmember Strikes
01:26:35.314                             : en:Epilogue
01:28:03.152                             : en:End Credits








Enlaces de Mega y Google Drive solo disponibles para Miembros VIP

Compra tu Membresía VIP y apoya a Club-HD!

ATENCIÓN! Tenemos TODO el material de Club-HD disponible por Mega y Google Drive, enlaces 100% activos y online hasta la fecha

Llévate tus cuentas Mega PRO III gratis con tu membresía VIP!
Todos los posts vivos con links de Mega y Google Drive.
Todo el material de Club-HD desbloqueado y sin publicidad.

Click Aquí para más información.



Enlaces de Mega y Google Drive solo disponibles para Miembros VIP

Compra tu Membresía VIP y apoya a Club-HD!

ATENCIÓN! Tenemos TODO el material de Club-HD disponible por Mega y Google Drive, enlaces 100% activos y online hasta la fecha

Llévate tus cuentas Mega PRO III gratis con tu membresía VIP!
Todos los posts vivos con links de Mega y Google Drive.
Todo el material de Club-HD desbloqueado y sin publicidad.

Click Aquí para más información.



Para ver este contenido oculto, debes dar click en una de las siguientes reacciones : Like Like, Love Love, Haha Haha, Wow Wow, Sad Sad, Angry Angry




Para ver este contenido oculto, debes dar click en una de las siguientes reacciones : Like Like, Love Love, Haha Haha, Wow Wow, Sad Sad, Angry Angry

 
Última edición por un moderador:

sharklui

Well-known member
Miembro VIP
Registro
28 Ago 2012
Mensajes
1.026
Ubicación
The Matrix
Gran cinta de comedia, crei que nunca la subirias :D, ojala podamos tenerlas todas en 1080 :rzr_:, Muchas gracias Gran Revol !!!
 

Usuarios Que Están Viendo Este Tema (Total: 1, Miembros: 0, Invitados: 1)

Quién Leyó Este Tema (Total Miembros: 1)

Arriba