Austin Powers: The Spy Who Shagged Me (1999) 1080p BDRip Dual Latino-Inglés [Subt. Esp] (Comedia)

Maestro Revolver

Administrador
Registro
9 Ago 2012
Mensajes
3.157
Reacciones (ptje)
55.205


Austin-Powers-1080p.jpg




FichaTecnica.jpg


TÍTULO ORIGINAL: Austin Powers; The Spy Who Shagged Me
AÑO: 1999
DURACIÓN: 95 min.
PAÍS: USA
DIRECTOR: Jay Roach
GUIÓN: Mike Myers, Michael McCullers (Personajes: Mike Myers)
REPARTO: Mike Myers, Heather Graham, Seth Green, Verne Troyer, Robert Wagner, Mindy Sterling, Michael York, Kristen Johnston, Elizabeth Hurley, Rob Lowe, Gia Carides, Will Ferrell, Tim Robbins, Jerry Springer, Burt Bacharach, Elvis Costello, Rebecca Romijn, Charles Napier, Clint Howard, Jennifer Coolidge, Woody Harrelson, Willie Nelson
PRODUCTORA: New Line Cinema
GÉNERO: Comedia | Parodia. Espionaje. Secuela. Viajes en el tiempo. Comedia absurda
imdb-logo.png
: http://www.imdb.com/title/tt0145660/




Sinopsis.jpg


Tras ser congelado, Austin Powers, un agente secreto de los años 60, vuelve a la vida en los años 90. Se encuentra con una nueva sociedad en la que tendrá que enfrentarse con nuevos villanos, pero también con el Doctor Maligno, su máximo enemigo. El malvado doctor tiene un siniestro plan: ha inventado una máquina del tiempo que le permitirá volver a los años 60 y destruir a su archienemigo. Pero Powers contará con la ayuda de una bella agente para derrotarlo.




Trailer.jpg






Capturas.jpg


1.jpg


2.jpg


3.jpg


4.jpg


5.jpg


6.jpg


La pelicula NO tiene ninguna marca... solo colocamos el nombre de esta web en las capturas




MediaInfo.jpg


Código:
General
Format                                   : Matroska
Format version                           : Version 2
File size                                : 11.1 GiB
Duration                                 : 1h 35mn
Overall bit rate                         : 16.8 Mbps
Movie name                               : www.club-hd.com
Encoded date                             : UTC 2013-11-30 20:52:59
Writing application                      : mkvmerge v5.7.0 ('The Whirlwind') built on Jul  8 2012 20:08:51
Writing library                          : libebml v1.2.3 + libmatroska v1.3.0

Video
ID                                       : 1
Format                                   : AVC
Format/Info                              : Advanced Video Codec
Format profile                           : [email protected]
Format settings, CABAC                   : Yes
Format settings, ReFrames                : 5 frames
Codec ID                                 : V_MPEG4/ISO/AVC
Duration                                 : 1h 35mn
Bit rate                                 : 14.4 Mbps
Width                                    : 1 920 pixels
Height                                   : 818 pixels
Display aspect ratio                     : 2.35:1
Frame rate mode                          : Constant
Frame rate                               : 23.976 fps
Color space                              : YUV
Chroma subsampling                       : 4:2:0
Bit depth                                : 8 bits
Scan type                                : Progressive
Bits/(Pixel*Frame)                       : 0.384
Stream size                              : 9.36 GiB (84%)
Title                                    : www.club-hd.com
Writing library                          : x264 core 129 r2245kMod bc13772
Language                                 : English
Default                                  : Yes
Forced                                   : No
Matrix coefficients                      : BT.709

Audio #1
ID                                       : 2
Format                                   : AC-3
Format/Info                              : Audio Coding 3
Mode extension                           : CM (complete main)
Format settings, Endianness              : Big
Codec ID                                 : A_AC3
Duration                                 : 1h 35mn
Bit rate mode                            : Constant
Bit rate                                 : 192 Kbps
Channel(s)                               : 2 channels
Channel positions                        : Front: L R
Sampling rate                            : 48.0 KHz
Bit depth                                : 16 bits
Compression mode                         : Lossy
Stream size                              : 131 MiB (1%)
Title                                    : www.club-hd.com  >>  Latino AC3 2.0
Language                                 : Spanish
Default                                  : Yes
Forced                                   : No

Audio #2
ID                                       : 3
Format                                   : AC-3
Format/Info                              : Audio Coding 3
Mode extension                           : CM (complete main)
Format settings, Endianness              : Big
Codec ID                                 : A_AC3
Duration                                 : 1h 35mn
Bit rate mode                            : Constant
Bit rate                                 : 640 Kbps
Channel(s)                               : 6 channels
Channel positions                        : Front: L C R, Side: L R, LFE
Sampling rate                            : 48.0 KHz
Bit depth                                : 16 bits
Compression mode                         : Lossy
Stream size                              : 436 MiB (4%)
Title                                    : www.club-hd.com  >>  Inglés AC3 5.1
Language                                 : English
Default                                  : No
Forced                                   : No

Audio #3
ID                                       : 4
Format                                   : DTS
Format/Info                              : Digital Theater Systems
Mode                                     : 16
Format settings, Endianness              : Big
Codec ID                                 : A_DTS
Duration                                 : 1h 35mn
Bit rate mode                            : Constant
Bit rate                                 : 1 509 Kbps
Channel(s)                               : 6 channels
Channel positions                        : Front: L C R, Side: L R, LFE
Sampling rate                            : 48.0 KHz
Bit depth                                : 24 bits
Compression mode                         : Lossy
Stream size                              : 1.00 GiB (9%)
Title                                    : www.club-hd.com  >>  Inglés DTS 5.1
Language                                 : English
Default                                  : No
Forced                                   : No

Text
ID                                       : 5
Format                                   : UTF-8
Codec ID                                 : S_TEXT/UTF8
Codec ID/Info                            : UTF-8 Plain Text
Language                                 : Spanish
Default                                  : No
Forced                                   : No

Menu
00:00:00.000                             : en:Logos/I Married a Fembot
00:04:41.863                             : en:Opening Titles
00:07:23.192                             : en:"My Fater Is Evil and Wants to Take Over the World"
00:10:28.961                             : en:Photo Shoot
00:12:43.179                             : en:Dr. Evil's Headquarters
00:17:28.756                             : en:The Time Portal
00:19:34.631                             : en:Checkmate
00:21:46.430                             : en:How to Steal Mojo
00:23:49.344                             : en:Back to the Sixties
00:25:24.981                             : en:Austin's Pad, 1969
00:28:34.629                             : en:"Prepare to Die, Powers!"
00:30:59.774                             : en:A Familiar Fez
00:34:51.881                             : en:Mister Mojo Risin
00:39:18.189                             : en:M.O.D. Cryo Chamber
00:39:58.103                             : en:I'm a Believer
00:43:13.090                             : en:It Got Weird
00:45:06.870                             : en:The Shag Pad
00:49:24.585                             : en:The Alan Parsons Project
00:51:35.300                             : en:Tracking Fat Bastard
00:53:35.837                             : en:Sample Analysis
00:58:33.218                             : en:Dr. Evil's Island
01:02:05.888                             : en:Just the Two of Us
01:03:49.867                             : en:Captured
01:08:29.854                             : en:Unidentified Flying Objects
01:11:21.527                             : en:The Moon Base
01:15:15.385                             : en:Attack of Mini-Me
01:18:28.662                             : en:Felicity or the World
01:22:43.917                             : en:My Mojo
01:24:43.411                             : en:Austin's Pad
01:28:05.071                             : en:Another Ufo Sighting/End Credits




Descarga


MEGA.jpg

Tenemos TODO el material de Club-HD disponible por Mega, enlaces 100% activos y online hasta la fecha

Llévate tus cuentas Mega PRO III gratis con tu membresía VIP!
Todos los posts vivos con links de Mega.
Todo el material de Club-HD desbloqueado y sin publicidad.

Obtén más información sobre nuestras Membresías VIP



1FICHIER-BANNER.png

Tenemos TODO el material de Club-HD disponible por Mega, enlaces 100% activos y online hasta la fecha

Llévate tus cuentas Mega PRO III gratis con tu membresía VIP!
Todos los posts vivos con links de Mega.
Todo el material de Club-HD desbloqueado y sin publicidad.

Obtén más información sobre nuestras Membresías VIP



UPLOADED_BANNER.png

Para ver este contenido oculto, debes dar click en el botón"Like", o cualquiera de las otras reacciones:

Me Gusta Me Gusta, Me Encanta Me Encanta, Jaja Jaja, Wow Wow, Triste Triste, Molesto Molesto
 
Última edición por un moderador:
S_T1 Excelente Cinta, muy buena Calidad, Gran Master Muchas gracias por todos estos grandes aportes que nos traes semana a semana, eres el mejor :aplausos: :aplausos: :aplausos:
 
Volver