Bad Boys II (2003) 1080p BDRip Dual Latino-Inglés [Subt. Esp] (Acción)

Maestro Revolver 1

Maestro Revolver

Well-known member
Miembro del Staff
Administrador
Registro
9 Ago 2012
Mensajes
3.567








TÍTULO ORIGINAL: Bad Boys II
AÑO: 2003
DURACIÓN: 150 min.
PAÍS: USA
DIRECTOR: Michael Bay
GUIÓN: Ron Shelton, Jerry Stahl, John Lee Hancock
REPARTO: Martin Lawrence, Will Smith, Jordi Mollà, Gabrielle Union, Joe Pantoliano, Peter Stormare, Theresa Randle, Michael Shannon, Antoni Corone
PRODUCTORA: Columbia Pictures
GÉNERO: Acción | Secuela. Drogas
: http://www.imdb.com/title/tt0172156/






Los detectives de narcóticos Mike Lowrey -Smith- y Marcus Burnett -Lawrence- han sido asignados a un nuevo caso en Miami, donde un astuto narcotraficante -Jordi Mollà- ha iniciado una sangrienta guerra. Además la amistad de los dos agentes se complica cuando Mike empieza a sentir algo por la hermana de Marcus...
























La pelicula NO tiene ninguna marca... solo colocamos el nombre de esta web en las capturas






Código:
General
Format                                   : Matroska
Format version                           : Version 2
File size                                : 12.3 GiB
Duration                                 : 2h 26mn
Overall bit rate                         : 12.0 Mbps
Movie name                               : www.club-hd.com
Encoded date                             : UTC 2013-08-29 00:19:15
Writing application                      : mkvmerge v5.7.0 ('The Whirlwind') built on Jul  8 2012 20:08:51
Writing library                          : libebml v1.2.3 + libmatroska v1.3.0

Video
ID                                       : 1
Format                                   : AVC
Format/Info                              : Advanced Video Codec
Format profile                           : High@L4.1
Format settings, CABAC                   : Yes
Format settings, ReFrames                : 3 frames
Codec ID                                 : V_MPEG4/ISO/AVC
Duration                                 : 2h 26mn
Bit rate                                 : 9 500 Kbps
Width                                    : 1 920 pixels
Height                                   : 800 pixels
Display aspect ratio                     : 2.40:1
Frame rate mode                          : Constant
Frame rate                               : 23.976 fps
Color space                              : YUV
Chroma subsampling                       : 4:2:0
Bit depth                                : 8 bits
Scan type                                : Progressive
Bits/(Pixel*Frame)                       : 0.258
Stream size                              : 9.39 GiB (76%)
Title                                    : www.club-hd.com
Writing library                          : x264 core 120
Language                                 : English
Default                                  : Yes
Forced                                   : No
Color primaries                          : BT.709
Transfer characteristics                 : BT.709
Matrix coefficients                      : BT.709

Audio #1
ID                                       : 2
Format                                   : AC-3
Format/Info                              : Audio Coding 3
Mode extension                           : CM (complete main)
Format settings, Endianness              : Big
Codec ID                                 : A_AC3
Duration                                 : 2h 26mn
Bit rate mode                            : Constant
Bit rate                                 : 448 Kbps
Channel(s)                               : 6 channels
Channel positions                        : Front: L C R, Side: L R, LFE
Sampling rate                            : 44.1 KHz
Bit depth                                : 16 bits
Compression mode                         : Lossy
Stream size                              : 470 MiB (4%)
Title                                    : www.club-hd.com > Latino AC3 5.1
Language                                 : Spanish
Default                                  : Yes
Forced                                   : No

Audio #2
ID                                       : 3
Format                                   : AC-3
Format/Info                              : Audio Coding 3
Mode extension                           : CM (complete main)
Format settings, Endianness              : Big
Codec ID                                 : A_AC3
Duration                                 : 2h 26mn
Bit rate mode                            : Constant
Bit rate                                 : 640 Kbps
Channel(s)                               : 6 channels
Channel positions                        : Front: L C R, Side: L R, LFE
Sampling rate                            : 48.0 KHz
Bit depth                                : 16 bits
Compression mode                         : Lossy
Stream size                              : 672 MiB (5%)
Title                                    : www.club-hd.com > Inglés AC3 5.1
Language                                 : English
Default                                  : No
Forced                                   : No

Audio #3
ID                                       : 4
Format                                   : DTS
Format/Info                              : Digital Theater Systems
Mode                                     : 16
Format settings, Endianness              : Big
Codec ID                                 : A_DTS
Duration                                 : 2h 26mn
Bit rate mode                            : Constant
Bit rate                                 : 1 510 Kbps
Channel(s)                               : 6 channels
Channel positions                        : Front: L C R, Side: L R, LFE
Sampling rate                            : 48.0 KHz
Bit depth                                : 24 bits
Compression mode                         : Lossy
Stream size                              : 1.55 GiB (13%)
Title                                    : www.club-hd.com > Inglés DTS 5.1
Language                                 : English
Default                                  : No
Forced                                   : No

Text
ID                                       : 5
Format                                   : UTF-8
Codec ID                                 : S_TEXT/UTF8
Codec ID/Info                            : UTF-8 Plain Text
Language                                 : Spanish
Default                                  : No
Forced                                   : No








Enlaces de Mega y Google Drive solo disponibles para Miembros VIP

Compra tu Membresía VIP y apoya a Club-HD!

ATENCIÓN! Tenemos TODO el material de Club-HD disponible por Mega y Google Drive, enlaces 100% activos y online hasta la fecha

Llévate tus cuentas Mega PRO III gratis con tu membresía VIP!
Todos los posts vivos con links de Mega y Google Drive.
Todo el material de Club-HD desbloqueado y sin publicidad.

Click Aquí para más información.



Enlaces de Mega y Google Drive solo disponibles para Miembros VIP

Compra tu Membresía VIP y apoya a Club-HD!

ATENCIÓN! Tenemos TODO el material de Club-HD disponible por Mega y Google Drive, enlaces 100% activos y online hasta la fecha

Llévate tus cuentas Mega PRO III gratis con tu membresía VIP!
Todos los posts vivos con links de Mega y Google Drive.
Todo el material de Club-HD desbloqueado y sin publicidad.

Click Aquí para más información.




Para ver este contenido oculto, debes dar click en una de las siguientes reacciones : Like Like, Love Love, Haha Haha, Wow Wow, Sad Sad, Angry Angry




Para ver este contenido oculto, debes dar click en una de las siguientes reacciones : Like Like, Love Love, Haha Haha, Wow Wow, Sad Sad, Angry Angry
 
Última edición por un moderador:
Joker 0

Joker

Well-known member
Ex Staff
Registro
27 Ago 2012
Mensajes
1.349
Ubicación
Arkham Asylum
Buena película, acá seguido la pasan por la TV pero la mitad es película y la otra mitad son comerciales -__-

A ver si después la descargo

Gracias!!!

Saludos :D
 
HemoAr 0

HemoAr

Dohko de Libra
Administrador
Uploader
Miembro VIP
Registro
9 Mar 2013
Mensajes
10.597
Ubicación
Rozan
Sin duda alguna gracias Master por la peli, son 12 gb :OHHH: Pnsand0 bueno mientras me decido Muchas Gracias Revolver y saludos a santutatita por pedir la peli. Que esta muy buena. Me gusta mas esta que la 1.
 

Usuarios Que Están Viendo Este Tema (Total: 1, Miembros: 0, Invitados: 1)

Quién Leyó Este Tema (Total Miembros: 4)

Arriba