Batman Beyond: Return of the Joker (2000) m-720p Dual Latino-Inglés [Subt. Esp] (Animación)

Maestro Revolver

Administrador
Registro
9 Ago 2012
Mensajes
3.157
Reacciones (ptje)
55.165


Batman-Beyond-Return-of-the-Joker.jpg




FichaTecnica.jpg


TÍTULO ORIGINAL: Batman Beyond: Return of the Joker (Batman of the Future: Return of the Joker)
AÑO: 2000
DURACIÓN: 77 min.
PAÍS: USA
DIRECTOR: Curt Geda
GUIÓN: Paul Dini, Glen Murakami, Bruce W. Timm (Personajes: Bob Kane)
REPARTO: Animation
PRODUCTORA: Warner Bros. Animation
GÉNERO: Animación. Acción. Ciencia ficción. Thriller | Superhéroes. Cómic. DC Comics
imdb-logo.png
: http://www.imdb.com/title/tt0233298/




Sinopsis.jpg


Joker no murió y ahora es más fuerte. Terry MacGinnis, el Batman del Futuro se enfrentará al enemigo de su mentor, Bruce Wayne.




Trailer.jpg






Capturas.jpg


1.jpg


2.jpg


3.jpg


4.jpg


0.jpg


5.jpg


6.jpg


La pelicula NO tiene ninguna marca... solo colocamos el nombre de esta web en las capturas




MediaInfo.jpg


Código:
General
Format                                   : Matroska
Format version                           : Version 2
File size                                : 1.69 GiB
Duration                                 : 1h 16mn
Overall bit rate                         : 3 143 Kbps
Movie name                               : www.club-hd.com
Encoded date                             : UTC 2013-03-06 18:31:56
Writing application                      : mkvmerge v5.7.0 ('The Whirlwind') built on Jul  8 2012 20:08:51
Writing library                          : libebml v1.2.3 + libmatroska v1.3.0

Video
ID                                       : 1
Format                                   : AVC
Format/Info                              : Advanced Video Codec
Format profile                           : [email protected]
Format settings, CABAC                   : Yes
Format settings, ReFrames                : 10 frames
Codec ID                                 : V_MPEG4/ISO/AVC
Duration                                 : 1h 16mn
Bit rate                                 : 2 500 Kbps
Width                                    : 1 280 pixels
Height                                   : 720 pixels
Display aspect ratio                     : 16:9
Frame rate mode                          : Constant
Frame rate                               : 23.976 fps
Color space                              : YUV
Chroma subsampling                       : 4:2:0
Bit depth                                : 8 bits
Scan type                                : Progressive
Bits/(Pixel*Frame)                       : 0.113
Stream size                              : 1.31 GiB (78%)
Title                                    : www.club-hd.com
Writing library                          : x264 core 114 r1913 5fd3dce
Language                                 : English
Default                                  : Yes
Forced                                   : No

Audio #1
ID                                       : 2
Format                                   : AC-3
Format/Info                              : Audio Coding 3
Mode extension                           : CM (complete main)
Format settings, Endianness              : Big
Codec ID                                 : A_AC3
Duration                                 : 1h 16mn
Bit rate mode                            : Constant
Bit rate                                 : 192 Kbps
Channel(s)                               : 2 channels
Channel positions                        : Front: L R
Sampling rate                            : 48.0 KHz
Bit depth                                : 16 bits
Compression mode                         : Lossy
Stream size                              : 105 MiB (6%)
Title                                    : www.club-hd.com  >>  Latino
Language                                 : Spanish
Default                                  : Yes
Forced                                   : No

Audio #2
ID                                       : 3
Format                                   : AC-3
Format/Info                              : Audio Coding 3
Mode extension                           : CM (complete main)
Format settings, Endianness              : Big
Codec ID                                 : A_AC3
Duration                                 : 1h 16mn
Bit rate mode                            : Constant
Bit rate                                 : 448 Kbps
Channel(s)                               : 6 channels
Channel positions                        : Front: L C R, Side: L R, LFE
Sampling rate                            : 48.0 KHz
Bit depth                                : 16 bits
Compression mode                         : Lossy
Stream size                              : 246 MiB (14%)
Title                                    : www.club-hd.com  >>  Inglés
Language                                 : English
Default                                  : No
Forced                                   : No

Text
ID                                       : 4
Format                                   : UTF-8
Codec ID                                 : S_TEXT/UTF8
Codec ID/Info                            : UTF-8 Plain Text
Language                                 : Spanish
Default                                  : No
Forced                                   : No




Descarga.jpg




google-drive-vip.png


Tenemos TODO el material de Club-HD disponible por Mega, enlaces 100% activos y online hasta la fecha

Llévate tus cuentas Mega PRO III gratis con tu membresía VIP!
Todos los posts vivos con links de Mega.
Todo el material de Club-HD desbloqueado y sin publicidad.

Obtén más información sobre nuestras Membresías VIP




MEGA.jpg

Tenemos TODO el material de Club-HD disponible por Mega, enlaces 100% activos y online hasta la fecha

Llévate tus cuentas Mega PRO III gratis con tu membresía VIP!
Todos los posts vivos con links de Mega.
Todo el material de Club-HD desbloqueado y sin publicidad.

Obtén más información sobre nuestras Membresías VIP


1FICHIER-VIP.png

Tenemos TODO el material de Club-HD disponible por Mega, enlaces 100% activos y online hasta la fecha

Llévate tus cuentas Mega PRO III gratis con tu membresía VIP!
Todos los posts vivos con links de Mega.
Todo el material de Club-HD desbloqueado y sin publicidad.

Obtén más información sobre nuestras Membresías VIP


UPLOADED_BANNER.png

Para ver este contenido oculto, debes dar click en el botón"Like", o cualquiera de las otras reacciones:

Me Gusta Me Gusta, Me Encanta Me Encanta, Jaja Jaja, Wow Wow, Triste Triste, Molesto Molesto
 
Última edición por un moderador:
garcias. ojala sigas subiendo mas pelis de dc comic animada
 
gracias gracias y mas gracias revolver, todo lo que tenga que ver con batman es lo mejor, y no tenia esta peli en esta calidad, tengo que revivir esos recuerdos de esta serie, saludos
 
baja revolver tas rayando con los dibujos q mas me gustan gracias
 
Gracias por este Aporte Amigo Revolver, debes tener la mejor conexion del mundo, porque no terminamos de bajar una pelicula cuando ya posteas otra.. jeje... Saludos y Exitos! Larga vida a Club-Hd.. H_b4nger
 
Gracias muy buen aporte todas las pelis de anime son muy buenas y las recomiendo
 
Pnsand0 No recuerdo haber visto esta peli... Así que va nomás para descarga!!! Muchas gracias Revo :aplausos:
 
Volver