Batman: The Dark Knight Rises (2012) IMAX 1080p BDRip Dual Latino-Inglés [Subt. Esp-Ing] (Thriller. Acción. Drama)

Maestro Revolver

Well-known member
Miembro del Staff
Administrador
Registro
9 Ago 2012
Mensajes
3.569
Reacciones
59.346
Puntos
113

Reputation:









TÍTULO ORIGINAL: The Dark Knight Rises (Batman 3)
AÑO: 2012
DURACIÓN: 164 min.
PAÍS: USA
DIRECTOR: Christopher Nolan
GUIÓN: Christopher Nolan, Jonathan Nolan (Historia: Christopher Nolan, David S. Goyer. Personajes: Bob Kane)
REPARTO: Christian Bale, Tom Hardy, Anne Hathaway, Michael Caine, Gary Oldman, Joseph Gordon-Levitt, Marion Cotillard, Morgan Freeman, Matthew Modine, Ben Mendelsohn, Josh Stewart, Juno Temple, Josh Pence, Nestor Carbonell, Brett Cullen, Tom Conti, Alon Aboutboul, Daniel Sunjata, Aidan Gillen, Cillian Murphy, Liam Neeson
PRODUCTORA: Coproducción USA-Reino Unido; DC Entertainment / Legendary Pictures / Warner Bros. Pictures
GÉNERO: Thriller. Acción. Drama | Superhéroes. Cómic. DC Comics. Secuela
http://www.imdb.com/title/tt1345836/





Hace ocho años que Batman desapareció en la oscuridad, dejando de ser un héroe para convertirse en fugitivo. Al asumir la culpa por la muerte del fiscal del distrito Harvey Dent, el Caballero Oscuro decidió sacrificarlo todo por lo que consideraba, al igual que el Comisario Gordon, un bien mayor. La mentira funciona durante un tiempo, ya que la actividad criminal de la ciudad de Gotham se ve aplacada gracias a la dura Ley Dent. Pero todo cambia con la llegada de una astuta gata ladrona, que pretende llevar a cabo un misterioso plan. Sin embargo, mucho más peligrosa es la aparición en escena de Bane, un terrorista enmascarado cuyos despiadados planes para la ciudad obligan a Bruce a regresar de su voluntario exilio.






























La pelicula NO tiene ninguna marca... solo colocamos el nombre de esta web en las capturas






Código:
General
Format                                   : Matroska
Format version                           : Version 2
File size                                : 13.3 GiB
Duration                                 : 2h 44mn
Overall bit rate                         : 11.6 Mbps
Movie name                               : www.club-hd.com
Encoded date                             : UTC 2012-11-17 12:24:10
Writing application                      : mkvmerge v5.7.0 ('The Whirlwind') built on Jul  8 2012 20:08:51
Writing library                          : libebml v1.2.3 + libmatroska v1.3.0

Video
ID                                       : 1
Format                                   : AVC
Format/Info                              : Advanced Video Codec
Format profile                           : High@L4.1
Format settings, CABAC                   : Yes
Format settings, ReFrames                : 4 frames
Codec ID                                 : V_MPEG4/ISO/AVC
Duration                                 : 2h 44mn
Bit rate                                 : 8 954 Kbps
Width                                    : 1 920 pixels
Height                                   : 1 080 pixels
Display aspect ratio                     : 16:9
Frame rate mode                          : Constant
Frame rate                               : 23.976 fps
Color space                              : YUV
Chroma subsampling                       : 4:2:0
Bit depth                                : 8 bits
Scan type                                : Progressive
Bits/(Pixel*Frame)                       : 0.180
Stream size                              : 10.0 GiB (76%)
Title                                    : www.club-hd.com
Writing library                          : x264 core 128 r2216 198a7ea
Language                                 : English
Default                                  : Yes
Forced                                   : No

Audio #1
ID                                       : 2
Format                                   : AC-3
Format/Info                              : Audio Coding 3
Mode extension                           : CM (complete main)
Format settings, Endianness              : Big
Codec ID                                 : A_AC3
Duration                                 : 2h 44mn
Bit rate mode                            : Constant
Bit rate                                 : 448 Kbps
Channel(s)                               : 6 channels
Channel positions                        : Front: L C R, Side: L R, LFE
Sampling rate                            : 48.0 KHz
Bit depth                                : 16 bits
Compression mode                         : Lossy
Stream size                              : 527 MiB (4%)
Title                                    : www.club-hd.com  >>  Latino AC3 5.1
Language                                 : Spanish
Default                                  : Yes
Forced                                   : No

Audio #2
ID                                       : 3
Format                                   : AC-3
Format/Info                              : Audio Coding 3
Mode extension                           : CM (complete main)
Format settings, Endianness              : Big
Codec ID                                 : A_AC3
Duration                                 : 2h 44mn
Bit rate mode                            : Constant
Bit rate                                 : 640 Kbps
Channel(s)                               : 6 channels
Channel positions                        : Front: L C R, Side: L R, LFE
Sampling rate                            : 48.0 KHz
Bit depth                                : 16 bits
Compression mode                         : Lossy
Stream size                              : 753 MiB (6%)
Title                                    : www.club-hd.com  >>  Inglés AC3 5.1
Language                                 : English
Default                                  : No
Forced                                   : No

Audio #3
ID                                       : 4
Format                                   : DTS
Format/Info                              : Digital Theater Systems
Mode                                     : 16
Format settings, Endianness              : Big
Codec ID                                 : A_DTS
Duration                                 : 2h 44mn
Bit rate mode                            : Constant
Bit rate                                 : 1 509 Kbps
Channel(s)                               : 6 channels
Channel positions                        : Front: L C R, Side: L R, LFE
Sampling rate                            : 48.0 KHz
Bit depth                                : 24 bits
Compression mode                         : Lossy
Stream size                              : 1.73 GiB (13%)
Title                                    : www.club-hd.com  >>  Inglés DTS 5.1
Language                                 : English
Default                                  : No
Forced                                   : No

Text #1
ID                                       : 5
Format                                   : UTF-8
Codec ID                                 : S_TEXT/UTF8
Codec ID/Info                            : UTF-8 Plain Text
Title                                    : Forzados
Language                                 : Spanish
Default                                  : Yes
Forced                                   : No

Text #2
ID                                       : 6
Format                                   : UTF-8
Codec ID                                 : S_TEXT/UTF8
Codec ID/Info                            : UTF-8 Plain Text
Language                                 : Spanish
Default                                  : No
Forced                                   : No

Text #3
ID                                       : 7
Format                                   : UTF-8
Codec ID                                 : S_TEXT/UTF8
Codec ID/Info                            : UTF-8 Plain Text
Language                                 : English
Default                                  : No
Forced                                   : No

Menu
00:00:00.000                             : en:00:00:00.000
00:09:02.834                             : en:00:09:02.834
00:19:08.522                             : en:00:19:08.522
00:30:15.856                             : en:00:30:15.856
00:41:08.800                             : en:00:41:08.800
00:51:09.525                             : en:00:51:09.525
01:00:29.668                             : en:01:00:29.668
01:10:04.033                             : en:01:10:04.033
01:20:13.475                             : en:01:20:13.475
01:31:00.580                             : en:01:31:00.580
01:39:24.292                             : en:01:39:24.292
01:48:58.490                             : en:01:48:58.490
02:00:21.589                             : en:02:00:21.589
02:10:47.673                             : en:02:10:47.673
02:19:12.636                             : en:02:19:12.636
02:30:14.631                             : en:02:30:14.631
02:36:50.526                             : en:02:36:50.526










Enlaces de Mega y Fireload solo disponibles para Miembros VIP

Compra tu Membresía VIP y apoya a Club-HD!

ATENCIÓN! Tenemos TODO el material de Club-HD disponible por Mega y Fireload, enlaces 100% activos y online hasta la fecha

Llévate tus cuentas Mega PRO II gratis con tu membresía VIP!
Todos los posts vivos con links de Mega y Fireload.
Todo el material de Club-HD desbloqueado y sin publicidad.

Click Aquí para más información.




Enlaces de Mega y Fireload solo disponibles para Miembros VIP

Compra tu Membresía VIP y apoya a Club-HD!

ATENCIÓN! Tenemos TODO el material de Club-HD disponible por Mega y Fireload, enlaces 100% activos y online hasta la fecha

Llévate tus cuentas Mega PRO II gratis con tu membresía VIP!
Todos los posts vivos con links de Mega y Fireload.
Todo el material de Club-HD desbloqueado y sin publicidad.

Click Aquí para más información.



Enlaces de Mega y Fireload solo disponibles para Miembros VIP

Compra tu Membresía VIP y apoya a Club-HD!

ATENCIÓN! Tenemos TODO el material de Club-HD disponible por Mega y Fireload, enlaces 100% activos y online hasta la fecha

Llévate tus cuentas Mega PRO II gratis con tu membresía VIP!
Todos los posts vivos con links de Mega y Fireload.
Todo el material de Club-HD desbloqueado y sin publicidad.

Click Aquí para más información.


Para ver este contenido oculto, debes dar click en una de las siguientes reacciones : Like Like, Love Love, Haha Haha, Wow Wow, Sad Sad, Angry Angry



Para ver este contenido oculto, debes dar click en una de las siguientes reacciones : Like Like, Love Love, Haha Haha, Wow Wow, Sad Sad, Angry Angry
 
Última edición:

The-Checho

New member
Registro
31 Ago 2012
Mensajes
512
Reacciones
72
Puntos
0

Reputation:

Wowww Llego en IMAX 1080p y el Latino!! :aplausos:

Gracias Revolver. Tb_up3

Desc_g_
 

Ricardo Manzo

Member
Registro
27 Ago 2012
Mensajes
79
Reacciones
4
Puntos
8

Reputation:

MUCHAS GRACIAS la estaba esperando desde hace mucho y en esta calidad y en esta versión Imax amigos de Club HD son lo máximo :bsrs: :D Desc_g_
 

Joker

Well-known member
Miembro del Staff
Súper Moderador
Registro
27 Ago 2012
Mensajes
1.349
Reacciones
3.760
Puntos
113
Ubicación
Arkham Asylum

Reputation:

Desc_g_

Enorme Revolver, como siempre enorme, ya no me sorprendo =P

Gracias!!!


Saludos :D
 

Usuarios Que Están Viendo Este Tema (Total: 1, Miembros: 0, Invitados: 1)

Arriba