Battle: Los Angeles (2011) 1080p BDRip Dual Latino-Ingles [Subt. Esp-Ing] (Ciencia ficción)

Maestro Revolver

Well-known member
Miembro del Staff
Administrador
Registro
9 Ago 2012
Mensajes
3.569
Reacciones
59.353
Puntos
113

Reputation:








TÍTULO ORIGINAL: Battle: Los Angeles (Battle L.A.)
AÑO: 2011
DURACIÓN: 116 min.
PAÍS: USA
DIRECTOR: Jonathan Liebesman
GUIÓN: Scott Silver, Christopher Bertolini
REPARTO: Aaron Eckhart, Michelle Rodriguez, Bridget Moynahan, Michael Peña, Ne-Yo, Ramon Rodriguez, Taylor Handley, Cory Hardrict, Jadin Gould, Bryce Cass, Joey King
PRODUCTORA: Columbia Pictures / Original Film
GÉNERO: Ciencia ficción. Bélico. Acción | Extraterrestres. Ejército






En el año 2011, una invasión extraterreste se convierte en una terrible realidad cuando la Tierra es atacada por fuerzas desconocidas que parecen meteoritos. Una tras otra van cayendo las grandes ciudades del mundo, y Los Ángeles se ha convertido en el último bastión dentro de los Estados Unidos. En medio del caos, a un sargento de la Marina (Aaron Eckhart) y sus hombres se les encarga la misión de rescatar a unos civiles de una zona que va a ser bombardeada. El pelotón tendrá que enfrentarse en una inesperada batalla a un enemigo absolutamente desconocido.




















La pelicula NO tiene ninguna marca... solo coloque mi nombre de usuario en las capturas








General
Format : Matroska
Format version : Version 4 / Version 2
File size : 8.83 GiB
Duration : 1h 56mn
Overall bit rate : 10.9 Mbps
Movie name : www.club-hd.com
Encoded date : UTC 2015-05-20 00:32:57
Writing application : mkvmerge v7.1.0 ('Good Love') 64bit built on Jul 27 2014 13:06:55
Writing library : libebml v1.3.0 + libmatroska v1.4.1

Video
ID : 1
Format : AVC
Format/Info : Advanced Video Codec
Format profile : High@L4.0
Format settings, CABAC : Yes
Format settings, ReFrames : 5 frames
Codec ID : V_MPEG4/ISO/AVC
Duration : 1h 56mn
Bit rate : 8 278 Kbps
Width : 1 920 pixels
Height : 800 pixels
Display aspect ratio : 2.40:1
Frame rate mode : Constant
Frame rate : 23.976 fps
Color space : YUV
Chroma subsampling : 4:2:0
Bit depth : 8 bits
Scan type : Progressive
Bits/(Pixel*Frame) : 0.225
Stream size : 6.54 GiB (74%)
Title : www.club-hd.com
Writing library : x264 core 115 r1995 c1e60b9
Language : English
Default : Yes
Forced : No

Audio #1
ID : 2
Format : AC-3
Format/Info : Audio Coding 3
Mode extension : CM (complete main)
Format settings, Endianness : Big
Codec ID : A_AC3
Duration : 1h 56mn
Bit rate mode : Constant
Bit rate : 448 Kbps
Channel(s) : 6 channels
Channel positions : Front: L C R, Side: L R, LFE
Sampling rate : 48.0 KHz
Bit depth : 16 bits
Compression mode : Lossy
Stream size : 372 MiB (4%)
Title : www.club-hd.com >> Latino AC3 5.1
Language : Spanish
Default : Yes
Forced : No

Audio #2
ID : 3
Format : AC-3
Format/Info : Audio Coding 3
Mode extension : CM (complete main)
Format settings, Endianness : Big
Codec ID : A_AC3
Duration : 1h 56mn
Bit rate mode : Constant
Bit rate : 640 Kbps
Channel(s) : 6 channels
Channel positions : Front: L C R, Side: L R, LFE
Sampling rate : 48.0 KHz
Bit depth : 16 bits
Compression mode : Lossy
Stream size : 532 MiB (6%)
Title : www.club-hd.com >> Inglés AC3 5.1
Language : English
Default : No
Forced : No

Audio #3
ID : 4
Format : DTS
Format/Info : Digital Theater Systems
Mode : 16
Format settings, Endianness : Big
Codec ID : A_DTS
Duration : 1h 56mn
Bit rate mode : Constant
Bit rate : 1 509 Kbps
Channel(s) : 6 channels
Channel positions : Front: L C R, Side: L R, LFE
Sampling rate : 48.0 KHz
Bit depth : 24 bits
Compression mode : Lossy
Stream size : 1.22 GiB (14%)
Title : www.club-hd.com >> Inglés DTS 5.1
Language : English
Default : No
Forced : No

Text
ID : 5
Format : UTF-8
Codec ID : S_TEXT/UTF8
Codec ID/Info : UTF-8 Plain Text
Title : www.club-hd.com
Language : Spanish
Default : No
Forced : No

Menu
00:00:00.000 : en:00:00:00.000
00:01:08.694 : en:00:01:08.694
00:02:11.757 : en:00:02:11.757
00:03:36.675 : en:00:03:36.675
00:06:16.793 : en:00:06:16.793
00:09:50.673 : en:00:09:50.673
00:13:03.449 : en:00:13:03.449
00:16:14.807 : en:00:16:14.807
00:19:34.173 : en:00:19:34.173
00:21:29.288 : en:00:21:29.288
00:24:50.739 : en:00:24:50.739
00:28:04.558 : en:00:28:04.558
00:30:38.587 : en:00:30:38.587
00:32:35.495 : en:00:32:35.495
00:37:37.714 : en:00:37:37.714
00:43:29.857 : en:00:43:29.857
00:47:09.660 : en:00:47:09.660
00:47:50.493 : en:00:47:50.493
00:49:44.899 : en:00:49:44.899
00:53:46.265 : en:00:53:46.265
00:55:32.162 : en:00:55:32.162
00:56:28.176 : en:00:56:28.176
00:58:41.852 : en:00:58:41.852
01:02:13.146 : en:01:02:13.146
01:04:50.136 : en:01:04:50.136
01:07:53.361 : en:01:07:53.361
01:10:11.541 : en:01:10:11.541
01:13:26.152 : en:01:13:26.152
01:15:13.467 : en:01:15:13.467
01:15:49.211 : en:01:15:49.211
01:17:44.618 : en:01:17:44.618
01:20:46.925 : en:01:20:46.925
01:23:37.679 : en:01:23:37.679
01:26:54.960 : en:01:26:54.960
01:33:49.165 : en:01:33:49.165
01:39:43.311 : en:01:39:43.311
01:44:44.528 : en:01:44:44.528







Contraseña: www.club-hd.com












Enlaces de Mega y Fireload solo disponibles para Miembros VIP

Compra tu Membresía VIP y apoya a Club-HD!

ATENCIÓN! Tenemos TODO el material de Club-HD disponible por Mega y Fireload, enlaces 100% activos y online hasta la fecha

Llévate tus cuentas Mega PRO II gratis con tu membresía VIP!
Todos los posts vivos con links de Mega y Fireload.
Todo el material de Club-HD desbloqueado y sin publicidad.

Click Aquí para más información.




Enlaces de Mega y Fireload solo disponibles para Miembros VIP

Compra tu Membresía VIP y apoya a Club-HD!

ATENCIÓN! Tenemos TODO el material de Club-HD disponible por Mega y Fireload, enlaces 100% activos y online hasta la fecha

Llévate tus cuentas Mega PRO II gratis con tu membresía VIP!
Todos los posts vivos con links de Mega y Fireload.
Todo el material de Club-HD desbloqueado y sin publicidad.

Click Aquí para más información.

Enlaces de Mega y Fireload solo disponibles para Miembros VIP

Compra tu Membresía VIP y apoya a Club-HD!

ATENCIÓN! Tenemos TODO el material de Club-HD disponible por Mega y Fireload, enlaces 100% activos y online hasta la fecha

Llévate tus cuentas Mega PRO II gratis con tu membresía VIP!
Todos los posts vivos con links de Mega y Fireload.
Todo el material de Club-HD desbloqueado y sin publicidad.

Click Aquí para más información.

Para ver este contenido oculto, debes dar click en una de las siguientes reacciones : Like Like, Love Love, Haha Haha, Wow Wow, Sad Sad, Angry Angry
 
Última edición:

bakuno23

New member
Registro
27 Ago 2012
Mensajes
715
Reacciones
8
Puntos
0
Edad
36

Reputation:

Me la llevo por que me lallevo.... Excelente Revolver... eres cabron¡¡¡¡
 

vhrod

Well-known member
Miembro VIP
Registro
27 Ago 2012
Mensajes
1.368
Reacciones
38
Puntos
48

Reputation:

Descargandoooooooo a fullll son unos master!!!!!
 

Usuarios Que Están Viendo Este Tema (Total: 1, Miembros: 0, Invitados: 1)

Arriba