Battlestar Galactica: Blood and Chrome (2012) m-720p Audio Inglés [Subt. Esp-Ing] (Acción. Ciencia ficción)

Maestro Revolver

Administrador
Registro
9 Ago 2012
Mensajes
3.157
Reacciones (ptje)
54.925


Battlestar-Galactica-Blood-and-Chrome.jpg




FichaTecnica.jpg


TÍTULO ORIGINAL: Battlestar Galactica: Blood and Chrome (TV Series)
AÑO: 2012
PAÍS: USA
DIRECTOR: David Eick (Creator), Michael Taylor (Creator), Jonas Pate
GUIÓN: David Eick, Michael Taylor
REPARTO: Luke Pasqualino, Ben Cotton, Lili Bordán, Leo Li Chiang, Mike Dopud, Brian Markinson, John Pyper-Ferguson, Adrian Holmes, Karen LeBlanc, Carmen Moore, Zak Santiago
PRODUCTORA: David Eick Productions
GÉNERO: Serie de TV. Acción. Ciencia ficción | Precuela. Robots. Aventura espacial
imdb-logo.png
: http://www.imdb.es/title/tt1704292/




Sinopsis.jpg


Serie que se sitúa entre "Battlestar Galactica" y su precuela "Caprica"; en esta ocasión seguimos las aventuras de un joven William Adama como aguerrido piloto en las Guerras Cylon, su entrenamiento y ascenso como guerrero y líder militar, y los descubrimientos de los terribles planes de los cylon.




Trailer.jpg






Capturas.jpg


1.jpg


2.jpg


3.jpg


4.jpg


5.jpg


6.jpg


La pelicula NO tiene ninguna marca... solo colocamos el nombre de esta web en las capturas




MediaInfo.jpg


Código:
General
Format                                   : Matroska
Format version                           : Version 2
File size                                : 2.05 GiB
Duration                                 : 1h 33mn
Overall bit rate                         : 3 140 Kbps
Movie name                               : www.club-hd.com
Encoded date                             : UTC 2013-02-12 00:41:31
Writing application                      : mkvmerge v5.7.0 ('The Whirlwind') built on Jul  8 2012 20:08:51
Writing library                          : libebml v1.2.3 + libmatroska v1.3.0

Video
ID                                       : 1
Format                                   : AVC
Format/Info                              : Advanced Video Codec
Format profile                           : [email protected]
Format settings, CABAC                   : Yes
Format settings, ReFrames                : 9 frames
Codec ID                                 : V_MPEG4/ISO/AVC
Duration                                 : 1h 33mn
Bit rate                                 : 2 694 Kbps
Width                                    : 1 280 pixels
Height                                   : 720 pixels
Display aspect ratio                     : 16:9
Frame rate mode                          : Constant
Frame rate                               : 23.976 fps
Color space                              : YUV
Chroma subsampling                       : 4:2:0
Bit depth                                : 8 bits
Scan type                                : Progressive
Bits/(Pixel*Frame)                       : 0.122
Stream size                              : 1.72 GiB (84%)
Title                                    : www.club-hd.com
Writing library                          : x264 core 129 r2245 bc13772
Language                                 : English
Default                                  : Yes
Forced                                   : No

Audio
ID                                       : 2
Format                                   : AC-3
Format/Info                              : Audio Coding 3
Mode extension                           : CM (complete main)
Format settings, Endianness              : Big
Codec ID                                 : A_AC3
Duration                                 : 1h 33mn
Bit rate mode                            : Constant
Bit rate                                 : 448 Kbps
Channel(s)                               : 6 channels
Channel positions                        : Front: L C R, Side: L R, LFE
Sampling rate                            : 48.0 KHz
Bit depth                                : 16 bits
Compression mode                         : Lossy
Stream size                              : 300 MiB (14%)
Title                                    : www.club-hd.com
Language                                 : English
Default                                  : Yes
Forced                                   : No

Text #1
ID                                       : 3
Format                                   : UTF-8
Codec ID                                 : S_TEXT/UTF8
Codec ID/Info                            : UTF-8 Plain Text
Language                                 : Spanish
Default                                  : Yes
Forced                                   : No

Text #2
ID                                       : 4
Format                                   : UTF-8
Codec ID                                 : S_TEXT/UTF8
Codec ID/Info                            : UTF-8 Plain Text
Language                                 : English
Default                                  : No
Forced                                   : No

Menu
00:00:00.000                             : en:Chapter 1
00:05:24.199                             : en:Chapter 2
00:11:34.360                             : en:Chapter 3
00:15:28.928                             : en:Chapter 4
00:21:51.602                             : en:Chapter 5
00:26:45.604                             : en:Chapter 6
00:33:51.613                             : en:Chapter 7
00:36:51.334                             : en:Chapter 8
00:41:12.762                             : en:Chapter 9
00:46:37.753                             : en:Chapter 10
00:49:48.277                             : en:Chapter 11
00:53:15.192                             : en:Chapter 12
00:58:18.453                             : en:Chapter 13
01:05:44.899                             : en:Chapter 14
01:09:13.733                             : en:Chapter 15
01:13:07.008                             : en:Chapter 16
01:15:40.995                             : en:Chapter 17
01:20:14.727                             : en:Chapter 18
01:24:26.979                             : en:Chapter 19
01:29:41.251                             : en:Chapter 20




Descarga.jpg




google-drive-vip.png


Tenemos TODO el material de Club-HD disponible por Mega, enlaces 100% activos y online hasta la fecha

Llévate tus cuentas Mega PRO III gratis con tu membresía VIP!
Todos los posts vivos con links de Mega.
Todo el material de Club-HD desbloqueado y sin publicidad.

Obtén más información sobre nuestras Membresías VIP




MEGA.jpg

Tenemos TODO el material de Club-HD disponible por Mega, enlaces 100% activos y online hasta la fecha

Llévate tus cuentas Mega PRO III gratis con tu membresía VIP!
Todos los posts vivos con links de Mega.
Todo el material de Club-HD desbloqueado y sin publicidad.

Obtén más información sobre nuestras Membresías VIP


1FICHIER-BANNER.png


Tenemos TODO el material de Club-HD disponible por Mega, enlaces 100% activos y online hasta la fecha

Llévate tus cuentas Mega PRO III gratis con tu membresía VIP!
Todos los posts vivos con links de Mega.
Todo el material de Club-HD desbloqueado y sin publicidad.

Obtén más información sobre nuestras Membresías VIP


up.jpg


Para ver este contenido oculto, debes dar click en el botón"Like", o cualquiera de las otras reacciones:

Me Gusta Me Gusta, Me Encanta Me Encanta, Jaja Jaja, Wow Wow, Triste Triste, Molesto Molesto

OPENLOAD.png


Para ver este contenido oculto, debes dar click en el botón"Like", o cualquiera de las otras reacciones:

Me Gusta Me Gusta, Me Encanta Me Encanta, Jaja Jaja, Wow Wow, Triste Triste, Molesto Molesto

 
Última edición por un moderador:
esta es la continuación que excelente !!! si sacan series asi me gustaria si no es mucha molestia y si tienes tiempo si podrias subir walking dead por lo menos las 2 primeras temporadas y si no pues tranquilo igual gracias por tu aporte como siempre Tb_up3
 
Mil Gracias R21, la estaba buscando y genial ahora esta aqui, muchas gracias...:dplgar:
 
Pero que excelente material maestro, como siempre con lo mejor.:aplausos::aplausos::aplausos:

Gracias Maestro revolver21!!:LXR::LXR::LXR:
 
Volver