Beautiful Creatures (2013) m-720p BDRip Dual Latino-Inglés [Subt. Esp] (Romance. Drama)

Maestro Revolver

Administrador
Registro
9 Ago 2012
Mensajes
3.157
Reacciones (ptje)
55.062


Beautiful-Creatures.jpg




FichaTecnica.jpg


TÍTULO ORIGINAL: Beautiful Creatures
AÑO: 2013
DURACIÓN: 124 min.
PAÍS: USA
DIRECTOR: Richard LaGravenese
GUIÓN: Richard LaGravenese (Novelas: Kami Garcia, Margaret Stohl)
REPARTO: Alden Ehrenreich, Alice Englert, Jeremy Irons, Viola Davis, Emmy Rossum, Thomas Mann, Emma Thompson, Eileen Atkins, Margo Martindale, Zoey Deutch, Tiffany Boone, Rachel Brosnahan, Kyle Gallner, Pruitt Taylor Vince, Robin Skye, Randy Redd
PRODUCTORA: Warner Bros. Pictures / Alcon Entertainment
GÉNERO: Romance. Drama. Fantástico | Sobrenatural. Brujería. Drama sureño
imdb-logo.png
: http://www.imdb.com/title/tt1559547/




Sinopsis.jpg


El hastío domina la vida de Ethan Wate, un chico que vive en un pueblo perdido del sur de los Estados Unidos. Pero un día conoce a Lena Duchannes, que es, al mismo tiempo, la chica de sus sueños y sus pesadillas. Cuento de amores contrariados que esconde un oscuro y peligroso secreto. Adaptación de una de las novelas tituladas "Sixteen Moons" (Dieciséis lunas).




Trailer.jpg






Capturas.jpg


1.jpg


2.jpg


3.jpg


4.jpg


5.jpg


6.jpg


La pelicula NO tiene ninguna marca... solo colocamos el nombre de esta web en las capturas




MediaInfo.jpg


Código:
General
Format                                   : Matroska
Format version                           : Version 2
File size                                : 3.31 GiB
Duration                                 : 2h 3mn
Overall bit rate                         : 3 824 Kbps
Movie name                               : www.club-hd.com
Encoded date                             : UTC 2013-05-05 01:16:53
Writing application                      : mkvmerge v5.7.0 ('The Whirlwind') built on Jul  8 2012 20:08:51
Writing library                          : libebml v1.2.3 + libmatroska v1.3.0

Video
ID                                       : 1
Format                                   : AVC
Format/Info                              : Advanced Video Codec
Format profile                           : [email protected]
Format settings, CABAC                   : Yes
Format settings, ReFrames                : 9 frames
Codec ID                                 : V_MPEG4/ISO/AVC
Duration                                 : 2h 3mn
Bit rate                                 : 2 735 Kbps
Width                                    : 1 280 pixels
Height                                   : 534 pixels
Display aspect ratio                     : 2.40:1
Frame rate mode                          : Constant
Frame rate                               : 23.976 fps
Color space                              : YUV
Chroma subsampling                       : 4:2:0
Bit depth                                : 8 bits
Scan type                                : Progressive
Bits/(Pixel*Frame)                       : 0.167
Stream size                              : 2.30 GiB (70%)
Title                                    : www.club-hd.com
Writing library                          : x264 core 130 r2273 b3065e6
Language                                 : English
Default                                  : Yes
Forced                                   : No

Audio #1
ID                                       : 2
Format                                   : AC-3
Format/Info                              : Audio Coding 3
Mode extension                           : CM (complete main)
Format settings, Endianness              : Big
Codec ID                                 : A_AC3
Duration                                 : 2h 3mn
Bit rate mode                            : Constant
Bit rate                                 : 640 Kbps
Channel(s)                               : 6 channels
Channel positions                        : Front: L C R, Side: L R, LFE
Sampling rate                            : 48.0 KHz
Bit depth                                : 16 bits
Compression mode                         : Lossy
Stream size                              : 567 MiB (17%)
Title                                    : www.club-hd.com  >>  Latino
Language                                 : Spanish
Default                                  : Yes
Forced                                   : No

Audio #2
ID                                       : 3
Format                                   : AC-3
Format/Info                              : Audio Coding 3
Mode extension                           : CM (complete main)
Format settings, Endianness              : Big
Codec ID                                 : A_AC3
Duration                                 : 2h 3mn
Bit rate mode                            : Constant
Bit rate                                 : 448 Kbps
Channel(s)                               : 6 channels
Channel positions                        : Front: L C R, Side: L R, LFE
Sampling rate                            : 48.0 KHz
Bit depth                                : 16 bits
Compression mode                         : Lossy
Stream size                              : 397 MiB (12%)
Title                                    : www.club-hd.com  >>  Inglés
Language                                 : English
Default                                  : No
Forced                                   : No

Text
ID                                       : 4
Format                                   : UTF-8
Codec ID                                 : S_TEXT/UTF8
Codec ID/Info                            : UTF-8 Plain Text
Language                                 : Spanish
Default                                  : No
Forced                                   : No

Menu
00:00:00.000                             : en:Chapter 1
00:09:38.036                             : en:Chapter 2
00:18:05.543                             : en:Chapter 3
00:28:05.058                             : en:Chapter 4
00:38:47.158                             : en:Chapter 5
00:49:34.054                             : en:Chapter 6
01:02:48.640                             : en:Chapter 7
01:11:04.510                             : en:Chapter 8
01:19:58.252                             : en:Chapter 9
01:28:35.393                             : en:Chapter 10
01:37:40.104                             : en:Chapter 11
01:52:17.564                             : en:Chapter 12
01:57:26.039                             : en:Chapter 13




Descarga.jpg



MEGA.jpg

Tenemos TODO el material de Club-HD disponible por Mega, enlaces 100% activos y online hasta la fecha

Llévate tus cuentas Mega PRO III gratis con tu membresía VIP!
Todos los posts vivos con links de Mega.
Todo el material de Club-HD desbloqueado y sin publicidad.

Obtén más información sobre nuestras Membresías VIP



UPLOADED_BANNER.png

Para ver este contenido oculto, debes dar click en el botón"Like", o cualquiera de las otras reacciones:

Me Gusta Me Gusta, Me Encanta Me Encanta, Jaja Jaja, Wow Wow, Triste Triste, Molesto Molesto

 
Última edición por un moderador:
se ve bien interesante, muchas gracias :D
 
que buena pelicula ya hacia tiempo que la estaba esperando muchos aportes como este ahora solo espero a que suban la de Hansel y Gretel
 
Gracias master 21, por este estreno esperemos que sea buena

saludos :dplgar:
 
no me llama mucho la atencion pero para un fin de semana de aburrimiento esta genial saludos y gracias man
 
De las novelas Sixteen Moons ... a ver a descargar ...
 
Volver