Before Midnight (2013) 720p BDRip Audio Inglés [Subt. Esp] (Romance. Drama)

Maestro Revolver

Well-known member
Miembro del Staff
Administrador
Registro
9 Ago 2012
Mensajes
3.567








TÍTULO ORIGINAL: Before Midnight
AÑO: 2013
DURACIÓN: 108 min.
PAÍS: USA
DIRECTOR: Richard Linklater
GUIÓN: Richard Linklater, Julie Delpy, Ethan Hawke
REPARTO: Julie Delpy, Ethan Hawke, Seamus Davey-Fitzpatrick, Jennifer Prior, Charlotte Prior, Xenia Kalogeropoulou, Walter Lassally, Ariane Labed, Yannis Papadopoulos, Athina Rachel Tsangari, Panos Koronis
PRODUCTORA: Sony Pictures Classic / Castle Rock Entertainment
GÉNERO: Romance. Drama | Drama romántico. Secuela
: http://www.imdb.com/title/tt2209418/






La tercera entrega de la trilogía, esta vez en la hermosa Grecia, retomando las vidas de Celine (Julie Delpy) y Jesse (Ethan Hawke) nueve años después de su segundo encuentro romántico y el misterio sobre cómo concluyó.
























La pelicula NO tiene ninguna marca... solo colocamos el nombre de esta web en las capturas






Código:
General
Format                                   : Matroska
Format version                           : Version 2
File size                                : 3.56 GiB
Duration                                 : 1h 48mn
Overall bit rate                         : 4 680 Kbps
Movie name                               : www.club-hd.com
Encoded date                             : UTC 2013-10-04 22:26:19
Writing application                      : mkvmerge v5.7.0 ('The Whirlwind') built on Jul  8 2012 20:08:51
Writing library                          : libebml v1.2.3 + libmatroska v1.3.0

Video
ID                                       : 1
Format                                   : AVC
Format/Info                              : Advanced Video Codec
Format profile                           : High@L4.1
Format settings, CABAC                   : Yes
Format settings, ReFrames                : 5 frames
Codec ID                                 : V_MPEG4/ISO/AVC
Duration                                 : 1h 48mn
Bit rate                                 : 4 232 Kbps
Width                                    : 1 280 pixels
Height                                   : 688 pixels
Display aspect ratio                     : 1.85:1
Frame rate mode                          : Constant
Frame rate                               : 23.976 fps
Color space                              : YUV
Chroma subsampling                       : 4:2:0
Bit depth                                : 8 bits
Scan type                                : Progressive
Bits/(Pixel*Frame)                       : 0.200
Stream size                              : 3.15 GiB (88%)
Title                                    : www.club-hd.com
Writing library                          : x264 core 133 r2334 a3ac64b
Language                                 : English
Default                                  : Yes
Forced                                   : No

Audio
ID                                       : 2
Format                                   : AC-3
Format/Info                              : Audio Coding 3
Mode extension                           : CM (complete main)
Format settings, Endianness              : Big
Codec ID                                 : A_AC3
Duration                                 : 1h 48mn
Bit rate mode                            : Constant
Bit rate                                 : 448 Kbps
Channel(s)                               : 6 channels
Channel positions                        : Front: L C R, Side: L R, LFE
Sampling rate                            : 48.0 KHz
Bit depth                                : 16 bits
Compression mode                         : Lossy
Stream size                              : 349 MiB (10%)
Title                                    : www.club-hd.com
Language                                 : English
Default                                  : Yes
Forced                                   : No

Text
ID                                       : 3
Format                                   : UTF-8
Codec ID                                 : S_TEXT/UTF8
Codec ID/Info                            : UTF-8 Plain Text
Title                                    : www.club-hd.com
Language                                 : Spanish
Default                                  : Yes
Forced                                   : No

Menu
00:00:00.000                             : en:00:00:00.000
00:06:20.046                             : en:00:06:20.046
00:19:32.588                             : en:00:19:32.588
00:21:44.345                             : en:00:21:44.345
00:27:28.814                             : en:00:27:28.814
00:29:36.692                             : en:00:29:36.692
00:37:08.643                             : en:00:37:08.643
00:46:51.142                             : en:00:46:51.142
00:59:11.590                             : en:00:59:11.590
01:01:09.708                             : en:01:01:09.708
01:04:42.796                             : en:01:04:42.796
01:06:13.219                             : en:01:06:13.219
01:09:44.931                             : en:01:09:44.931
01:19:05.532                             : en:01:19:05.532
01:26:59.548                             : en:01:26:59.548
01:35:58.127                             : en:01:35:58.127



Todos los links son Intercambiables!


Enlaces de Mega y Google Drive solo disponibles para Miembros VIP

Compra tu Membresía VIP y apoya a Club-HD!

ATENCIÓN! Tenemos TODO el material de Club-HD disponible por Mega y Google Drive, enlaces 100% activos y online hasta la fecha

Llévate tus cuentas Mega PRO III gratis con tu membresía VIP!
Todos los posts vivos con links de Mega y Google Drive.
Todo el material de Club-HD desbloqueado y sin publicidad.

Click Aquí para más información.

Enlaces de Mega y Google Drive solo disponibles para Miembros VIP

Compra tu Membresía VIP y apoya a Club-HD!

ATENCIÓN! Tenemos TODO el material de Club-HD disponible por Mega y Google Drive, enlaces 100% activos y online hasta la fecha

Llévate tus cuentas Mega PRO III gratis con tu membresía VIP!
Todos los posts vivos con links de Mega y Google Drive.
Todo el material de Club-HD desbloqueado y sin publicidad.

Click Aquí para más información.

Para ver este contenido oculto, debes dar click en una de las siguientes reacciones : Like Like, Love Love, Haha Haha, Wow Wow, Sad Sad, Angry Angry

Para ver este contenido oculto, debes dar click en una de las siguientes reacciones : Like Like, Love Love, Haha Haha, Wow Wow, Sad Sad, Angry Angry
 
Última edición por un moderador:

Usuarios Que Están Viendo Este Tema (Total: 1, Miembros: 0, Invitados: 1)

Quién Leyó Este Tema (Total Miembros: 2)

Arriba