Beneath the Planet of the Apes (1970) 1080p BDRip Dual Latino-Inglés [Subt. Esp] (Ciencia ficción. Acción)

Maestro Revolver

Administrador
Registro
9 Ago 2012
Mensajes
3.157
Reacciones (ptje)
55.061


Beneath-the-Planet-of-the-Apes-1080p.jpg




FichaTecnica.jpg


TÍTULO ORIGINAL: Beneath the Planet of the Apes
AÑO: 1970
DURACIÓN: 95 min.
PAÍS: USA
DIRECTOR: Ted Post
GUIÓN: Paul Dehn (Historia: Paul Dehn, Mort Abrahams. Personajes: Pierre Boulle)
REPARTO: James Franciscus, Charlton Heston, Kim Hunter, Maurice Evans, Victor Buono, Linda Harrison
PRODUCTORA: 20th Century Fox
GÉNERO: Ciencia ficción. Acción | Secuela. Simios. Futuro postapocalíptico
imdb-logo.png
: http://www.imdb.com/title/tt0065462/




Sinopsis.jpg


Una nueva nave procedente del espacio y del tiempo aterriza al mando del astronauta Brent, que acude en busca del desaparecido George Taylor. Vuelve a encontrarse con los simios que dominan el mundo, relegando a los humanos a la esclavitud. Sin embargo, con la ayuda de la doctora Zira seguirá las huellas de Taylor hasta la Zona Prohibida, en cuyas catacumbas, lo que son las ruinas del metro de Nueva York, encuentra a una raza humana mutante con poderes telepáticos.




Trailer.jpg






Capturas.jpg


1.jpg


2.jpg


3.jpg


4.jpg


5.jpg


6.jpg


La pelicula NO tiene ninguna marca... solo colocamos el nombre de esta web en las capturas




MediaInfo.jpg


Código:
General
Format                                   : Matroska
Format version                           : Version 2
File size                                : 14.1 GiB
Duration                                 : 1h 34mn
Overall bit rate                         : 21.3 Mbps
Movie name                               : www.club-hd.com
Encoded date                             : UTC 2013-10-22 03:15:43
Writing application                      : mkvmerge v5.7.0 ('The Whirlwind') built on Jul  8 2012 20:08:51
Writing library                          : libebml v1.2.3 + libmatroska v1.3.0
Attachment                               : Yes / Yes

Video
ID                                       : 1
Format                                   : AVC
Format/Info                              : Advanced Video Codec
Format profile                           : [email protected]
Format settings, CABAC                   : Yes
Format settings, ReFrames                : 5 frames
Codec ID                                 : V_MPEG4/ISO/AVC
Duration                                 : 1h 34mn
Bit rate                                 : 18.5 Mbps
Width                                    : 1 920 pixels
Height                                   : 812 pixels
Display aspect ratio                     : 2.35:1
Frame rate mode                          : Constant
Frame rate                               : 23.976 fps
Color space                              : YUV
Chroma subsampling                       : 4:2:0
Bit depth                                : 8 bits
Scan type                                : Progressive
Bits/(Pixel*Frame)                       : 0.496
Stream size                              : 12.3 GiB (87%)
Title                                    : www.club-hd.com
Writing library                          : x264 core 129 r2230kMod 1cffe9f
Language                                 : English
Default                                  : Yes
Forced                                   : No
Matrix coefficients                      : BT.709

Audio #1
ID                                       : 2
Format                                   : AC-3
Format/Info                              : Audio Coding 3
Mode extension                           : CM (complete main)
Format settings, Endianness              : Big
Codec ID                                 : A_AC3
Duration                                 : 1h 34mn
Bit rate mode                            : Constant
Bit rate                                 : 192 Kbps
Channel(s)                               : 2 channels
Channel positions                        : Front: L R
Sampling rate                            : 48.0 KHz
Bit depth                                : 16 bits
Compression mode                         : Lossy
Delay relative to video                  : 300ms
Stream size                              : 130 MiB (1%)
Title                                    : www.club-hd.com  >>  Latino AC3 2.0
Language                                 : Spanish
Default                                  : Yes
Forced                                   : No

Audio #2
ID                                       : 3
Format                                   : AC-3
Format/Info                              : Audio Coding 3
Mode extension                           : CM (complete main)
Format settings, Endianness              : Big
Codec ID                                 : A_AC3
Duration                                 : 1h 34mn
Bit rate mode                            : Constant
Bit rate                                 : 640 Kbps
Channel(s)                               : 6 channels
Channel positions                        : Front: L C R, Side: L R, LFE
Sampling rate                            : 48.0 KHz
Bit depth                                : 16 bits
Compression mode                         : Lossy
Stream size                              : 434 MiB (3%)
Title                                    : www.club-hd.com  >>  Inglés AC3 5.1
Language                                 : English
Default                                  : No
Forced                                   : No

Audio #3
ID                                       : 4
Format                                   : DTS
Format/Info                              : Digital Theater Systems
Mode                                     : 16
Format settings, Endianness              : Big
Codec ID                                 : A_DTS
Duration                                 : 1h 34mn
Bit rate mode                            : Constant
Bit rate                                 : 1 509 Kbps
Channel(s)                               : 6 channels
Channel positions                        : Front: L C R, Side: L R, LFE
Sampling rate                            : 48.0 KHz
Bit depth                                : 24 bits
Compression mode                         : Lossy
Stream size                              : 1 022 MiB (7%)
Title                                    : www.club-hd.com  >>  Inglés DTS 5.1
Language                                 : English
Default                                  : No
Forced                                   : No

Text
ID                                       : 5
Format                                   : UTF-8
Codec ID                                 : S_TEXT/UTF8
Codec ID/Info                            : UTF-8 Plain Text
Language                                 : Spanish
Default                                  : No
Forced                                   : No

Menu
00:00:00.000                             : en:The Revelation
00:02:25.354                             : en:Main Titles
00:05:28.161                             : en:The Same Trajectory
00:09:20.310                             : en:Brent and Nova
00:16:51.719                             : en:Ursus' Speech
00:22:45.447                             : en:The Steambath
00:24:05.611                             : en:Sanctuary
00:31:24.633                             : en:Capture
00:33:54.741                             : en:Military Training
00:35:08.940                             : en:Escape
00:38:29.057                             : en:The Chase
00:41:12.303                             : en:Welcome Home
00:43:56.634                             : en:The Eve of a Holy War
00:49:20.875                             : en:Following the Hum
00:53:51.186                             : en:Force of Evil
00:56:51.700                             : en:The Almighty Bomb
00:59:40.535                             : en:Interrogation
01:07:53.361                             : en:Apes on the March
01:13:31.407                             : en:The Inmost Self
01:18:10.603                             : en:Taylor
01:24:46.957                             : en:The Apes Attack
01:26:53.083                             : en:Losing Nova
01:29:23.316                             : en:Doomsday
01:33:49.833                             : en:End Titles




Descarga.jpg



MEGA.jpg

Tenemos TODO el material de Club-HD disponible por Mega, enlaces 100% activos y online hasta la fecha

Llévate tus cuentas Mega PRO III gratis con tu membresía VIP!
Todos los posts vivos con links de Mega.
Todo el material de Club-HD desbloqueado y sin publicidad.

Obtén más información sobre nuestras Membresías VIP



VIP_H.jpg


Tenemos TODO el material de Club-HD disponible por Mega, enlaces 100% activos y online hasta la fecha

Llévate tus cuentas Mega PRO III gratis con tu membresía VIP!
Todos los posts vivos con links de Mega.
Todo el material de Club-HD desbloqueado y sin publicidad.

Obtén más información sobre nuestras Membresías VIP



UPLOADED_BANNER.png

Para ver este contenido oculto, debes dar click en el botón"Like", o cualquiera de las otras reacciones:

Me Gusta Me Gusta, Me Encanta Me Encanta, Jaja Jaja, Wow Wow, Triste Triste, Molesto Molesto
 
Última edición por un moderador:
muy bueno seria verlas desde la primera sacada hasta la ultima porque las primeras nunca las he visto pero ahora aprovechare ya que todas están aquí
 
14 gb!!!!...bueno si ya me lleve la otra en igual calidad, esta no puede ser menos.

Gracias maestro.
 
Volver