Beyoncé: I Am... World Tour (2010) 720p BDRip [AC3 5.1] [Subt. Esp] (Concierto)

Maestro Revolver

Well-known member
Miembro del Staff
Administrador
Registro
9 Ago 2012
Mensajes
3.567








I Am... Tour (En Español: Yo soy...) Fue el tercer Tour en solitario de la cantante estadounidense Beyoncé Knowles, promocionando su tercer disco de estudio titulado I Am... Sasha Fierce. El Tour pasó por América del Norte, América del Sur, Europa, Japón, Australia, África y Asia, en definitiva: Un Tour Mundial.



Track List:

01. Intro
02. Crazy In Love (Feat. Jay-Z)
03. Naughty Girl
04. Tomorrow I Am Sasha Fierce
05. Freakum Dress
06. Get Me Bodied
07. Smash Into You
08. Ave Maria
09. Broken-Hearted Girl
10. If I Were A Boy / You Oughta Know
11. Robot
12. Diva
13. Radio
14. Socks & Stilettos
15. Ego (Feat. Kanye West)
16. Hello
17. Sasha vs. Beyonc?
18. Baby Boy / You Don’t Love Me (No, No, No)
19. Irreplaceable
20. Check On It
21. Bootylicious
22. Upgrade U
23. Video Phone
24. Are You Filming Me With That?
25. Say My Name
26. At Last
27. Listen
28. Single Ladies Contest
29. Single Ladies (Put A Ring On It)
30. Halo





























Código:
General
Format                                   : Matroska
Format version                           : Version 2
File size                                : 5.97 GiB
Duration                                 : 1h 39mn
Overall bit rate                         : 8 639 Kbps
Movie name                               : www.club-hd.com
Encoded date                             : UTC 2013-04-07 15:37:53
Writing application                      : mkvmerge v5.7.0 ('The Whirlwind') built on Jul  8 2012 20:08:51
Writing library                          : libebml v1.2.3 + libmatroska v1.3.0

Video
ID                                       : 1
Format                                   : AVC
Format/Info                              : Advanced Video Codec
Format profile                           : High@L4.1
Format settings, CABAC                   : Yes
Format settings, ReFrames                : 7 frames
Codec ID                                 : V_MPEG4/ISO/AVC
Duration                                 : 1h 39mn
Bit rate                                 : 8 000 Kbps
Width                                    : 1 280 pixels
Height                                   : 720 pixels
Display aspect ratio                     : 16:9
Frame rate mode                          : Constant
Frame rate                               : 23.976 fps
Color space                              : YUV
Chroma subsampling                       : 4:2:0
Bit depth                                : 8 bits
Scan type                                : Progressive
Bits/(Pixel*Frame)                       : 0.362
Stream size                              : 5.41 GiB (91%)
Title                                    : www.club-hd.com
Writing library                          : x264 core 110 r1820 fdcf2ae
Language                                 : English
Default                                  : Yes
Forced                                   : No

Audio
ID                                       : 2
Format                                   : AC-3
Format/Info                              : Audio Coding 3
Mode extension                           : CM (complete main)
Format settings, Endianness              : Big
Codec ID                                 : A_AC3
Duration                                 : 1h 39mn
Bit rate mode                            : Constant
Bit rate                                 : 640 Kbps
Channel(s)                               : 6 channels
Channel positions                        : Front: L C R, Side: L R, LFE
Sampling rate                            : 48.0 KHz
Bit depth                                : 16 bits
Compression mode                         : Lossy
Stream size                              : 453 MiB (7%)
Title                                    : www.club-hd.com  >>  AC3 5.1 @ 640 Kbps
Language                                 : English
Default                                  : Yes
Forced                                   : No

Text
ID                                       : 3
Format                                   : UTF-8
Codec ID                                 : S_TEXT/UTF8
Codec ID/Info                            : UTF-8 Plain Text
Language                                 : Spanish (Español de España)
Default                                  : Yes
Forced                                   : No

Menu
00:00:00.000                             : en:1. Intro
00:01:54.281                             : en:2. Crazy In Love feat. Jay-Z
00:07:19.230                             : en:3. Naughty Girl
00:09:53.259                             : en:4. Tomorrow I Am Sasha Fierce
00:10:32.590                             : en:5. Freakum Dress
00:13:20.550                             : en:6. Get Me Bodied
00:16:19.187                             : en:7. Smash Into You
00:20:09.333                             : en:8. Ave Maria
00:24:26.882                             : en:9. Broken-Hearted Girl
00:28:13.483                             : en:10. If I Were A Boy / You Oughta Know
00:34:01.456                             : en:11. Robot
00:34:58.680                             : en:12. Diva
00:37:50.685                             : en:13. Radio
00:40:26.507                             : en:14. Socks & Stilettos
00:40:41.981                             : en:15. Ego feat. Kanye West
00:43:52.046                             : en:16. Hello
00:47:31.182                             : en:17. Sasha vs. Beyonce
00:48:24.860                             : en:18. Baby Boy / You Do not Love Me, No No No
00:52:52.795                             : en:19. Irreplaceable
00:58:55.365                             : en:20. Check On It
01:01:08.874                             : en:21. Bootylicious
01:01:58.006                             : en:22. Upgrade U
01:04:10.472                             : en:23. Video Phone
01:06:39.913                             : en:24. Are You Filming Me With That?
01:07:42.433                             : en:25. Say My Name
01:10:03.408                             : en:26. At Last
01:13:56.891                             : en:27. Listen
01:17:20.928                             : en:28. Single Ladies Contest
01:18:58.609                             : en:29. Single Ladies (Put A Ring On It)
01:23:19.203                             : en:30. Halo
01:35:03.740                             : en:31. Credits








Enlaces de Mega y Google Drive solo disponibles para Miembros VIP

Compra tu Membresía VIP y apoya a Club-HD!

ATENCIÓN! Tenemos TODO el material de Club-HD disponible por Mega y Google Drive, enlaces 100% activos y online hasta la fecha

Llévate tus cuentas Mega PRO III gratis con tu membresía VIP!
Todos los posts vivos con links de Mega y Google Drive.
Todo el material de Club-HD desbloqueado y sin publicidad.

Click Aquí para más información.



Para ver este contenido oculto, debes dar click en una de las siguientes reacciones : Like Like, Love Love, Haha Haha, Wow Wow, Sad Sad, Angry Angry

 
Última edición por un moderador:

Usuarios Que Están Viendo Este Tema (Total: 1, Miembros: 0, Invitados: 1)

Quién Leyó Este Tema (Total Miembros: 2)

Arriba