Big Ass Spider (2013) 720p BDRip Audio Inglés [Subt. Esp] (Ciencia ficción)

Maestro Revolver

Administrador
Registro
9 Ago 2012
Mensajes
3.157
Reacciones (ptje)
54.925


Nueva-CaratulaBlu-Ray.jpg




FichaTecnica.jpg


TÍTULO ORIGINAL: Big Ass Spider
AÑO: 2013
DURACIÓN: 85 min.
PAÍS: USA
DIRECTOR: Mike Mendez
GUIÓN: Mike Mendez
REPARTO: Greg Grunberg, Lin Shaye, Ray Wise, Clare Kramer, Patrick Bauchau, Lloyd Kaufman, Lombardo Boyar, Sarah Oliver, Alexis Peters, James C. Mathis III, Jennifer Gonzalez
PRODUCTORA: Epic Pictures Group / Film Entertainment Services / Snowfort Pictures
GÉNERO: Ciencia ficción. Terror | Arañas. Comedia de terror
imdb-logo.png
: http://www.imdb.com/title/tt1830713/




Sinopsis.jpg


Una araña gigante y alienígena se escapa de un laboratorio militar y empieza a causar el pánico por las calles de Los Ángeles. Los militares no pueden detenerla. Es entonces cuando el gobierno decide tirar de ingenio y reúne a un grupo de científicos (y a un exterminador profesional) para que resuelvan el embolado.




Trailer.jpg






Capturas.jpg


1.jpg


2.jpg


3.jpg


4.jpg


5.jpg


6.jpg


La pelicula NO tiene ninguna marca... solo colocamos el nombre de esta web en las capturas




MediaInfo.jpg


Código:
General
Format                                   : Matroska
Format version                           : Version 2
File size                                : 3.63 GiB
Duration                                 : 1h 20mn
Overall bit rate                         : 6 450 Kbps
Movie name                               : www.club-hd.com
Encoded date                             : UTC 2013-12-14 13:24:29
Writing application                      : mkvmerge v5.7.0 ('The Whirlwind') built on Jul  8 2012 20:08:51
Writing library                          : libebml v1.2.3 + libmatroska v1.3.0

Video
ID                                       : 1
Format                                   : AVC
Format/Info                              : Advanced Video Codec
Format profile                           : [email protected]
Format settings, CABAC                   : Yes
Format settings, ReFrames                : 5 frames
Codec ID                                 : V_MPEG4/ISO/AVC
Duration                                 : 1h 20mn
Bit rate                                 : 4 301 Kbps
Width                                    : 1 280 pixels
Height                                   : 720 pixels
Display aspect ratio                     : 16:9
Frame rate mode                          : Constant
Frame rate                               : 23.976 fps
Color space                              : YUV
Chroma subsampling                       : 4:2:0
Bit depth                                : 8 bits
Scan type                                : Progressive
Bits/(Pixel*Frame)                       : 0.195
Stream size                              : 2.35 GiB (65%)
Title                                    : www.club-hd.com
Writing library                          : x264 core 140 r2377 1ca7bb9
Language                                 : English
Default                                  : Yes
Forced                                   : No

Audio #1
ID                                       : 2
Format                                   : DTS
Format/Info                              : Digital Theater Systems
Mode                                     : 16
Format settings, Endianness              : Big
Codec ID                                 : A_DTS
Duration                                 : 1h 20mn
Bit rate mode                            : Constant
Bit rate                                 : 1 509 Kbps
Channel(s)                               : 6 channels
Channel positions                        : Front: L C R, Side: L R, LFE
Sampling rate                            : 48.0 KHz
Bit depth                                : 16 bits
Compression mode                         : Lossy
Stream size                              : 870 MiB (23%)
Title                                    : www.club-hd.com  >>  DTS
Language                                 : English
Default                                  : Yes
Forced                                   : No

Audio #2
ID                                       : 3
Format                                   : AC-3
Format/Info                              : Audio Coding 3
Mode extension                           : CM (complete main)
Format settings, Endianness              : Big
Codec ID                                 : A_AC3
Duration                                 : 1h 20mn
Bit rate mode                            : Constant
Bit rate                                 : 640 Kbps
Channel(s)                               : 6 channels
Channel positions                        : Front: L C R, Side: L R, LFE
Sampling rate                            : 48.0 KHz
Bit depth                                : 16 bits
Compression mode                         : Lossy
Stream size                              : 369 MiB (10%)
Title                                    : www.club-hd.com  >>  AC3
Language                                 : English
Default                                  : No
Forced                                   : No

Text
ID                                       : 4
Format                                   : UTF-8
Codec ID                                 : S_TEXT/UTF8
Codec ID/Info                            : UTF-8 Plain Text
Language                                 : Spanish
Default                                  : Yes
Forced                                   : No

Menu
00:00:00.000                             : en:00:00:00.000
00:05:52.477                             : en:00:05:52.477
00:13:16.212                             : en:00:13:16.212
00:20:04.786                             : en:00:20:04.786
00:27:09.336                             : en:00:27:09.336
00:35:03.476                             : en:00:35:03.476
00:42:32.341                             : en:00:42:32.341
00:49:46.108                             : en:00:49:46.108
00:56:21.586                             : en:00:56:21.586
01:00:23.870                             : en:01:00:23.870
01:05:45.983                             : en:01:05:45.983
01:12:19.251                             : en:01:12:19.251




Descarga.jpg



MEGA.jpg

Tenemos TODO el material de Club-HD disponible por Mega, enlaces 100% activos y online hasta la fecha

Llévate tus cuentas Mega PRO III gratis con tu membresía VIP!
Todos los posts vivos con links de Mega.
Todo el material de Club-HD desbloqueado y sin publicidad.

Obtén más información sobre nuestras Membresías VIP



UPLOADED_BANNER.png

Para ver este contenido oculto, debes dar click en el botón"Like", o cualquiera de las otras reacciones:

Me Gusta Me Gusta, Me Encanta Me Encanta, Jaja Jaja, Wow Wow, Triste Triste, Molesto Molesto

 
Última edición por un moderador:
solo la bajare por verla una ves no se ve tan buena pero veremos que tal saludos y gracias
 
jaja se ve media mami..la, pero vamos a ver, gracias
 
Volver