Biutiful (2010) 720p BDRip Audio Español [Subt. Esp] (Drama)

Maestro Revolver

Administrador
Registro
9 Ago 2012
Mensajes
3.157
Reacciones (ptje)
55.205


Biutiful.jpg




FichaTecnica.jpg


TÍTULO ORIGINAL: Biutiful
AÑO: 2010
DURACIÓN: 118 min.
PAÍS: México
DIRECTOR: Alejandro González Iñárritu
GUIÓN: Alejandro González Iñárritu, Armando Bo, Nicolás Giacobone (Historia: Alejandro González Iñárritu)
REPARTO: Javier Bardem, Maricel Álvarez, Diaryatou Daff, Eduard Fernández, Ana Wagener, Guillermo Estrella, Rubén Ochandiano, Félix Cubero, Martina García, Manolo Solo, Karra Elejalde
PRODUCTORA: Coproducción México-España; Menage Atroz / Cha Cha Cha / Mod Producciones / Ikiru Films / Focus Features
GÉNERO: Drama | Drama social. Inmigración. Enfermedad
imdb-logo.png
: http://www.imdb.com/title/tt1164999/




Sinopsis.jpg


Retrato de la vida de Uxbal: padre abnegado e hijo desamparado. Intermediario de la sombra. Próximo a los desaparecidos. Atraído por los fantasmas. Sensible a los espíritus. Superviviente en el corazón de una Barcelona invisible. Sintiendo que la muerte le ronda, intenta encontrar la paz, proteger a sus hijos, salvarse a sí mismo. La historia de Uxbal es sencilla y compleja, al igual que nuestras vidas de hoy.




Trailer.jpg






Capturas.jpg


1.jpg


2.jpg


3.jpg


4.jpg


5.jpg


6.jpg


La pelicula NO tiene ninguna marca... solo colocamos el nombre de esta web en las capturas




MediaInfo.jpg


Código:
General
Format                                   : Matroska
Format version                           : Version 2
File size                                : 3.96 GiB
Duration                                 : 2h 27mn
Overall bit rate                         : 3 834 Kbps
Movie name                               : www.club-hd.com
Encoded date                             : UTC 2013-06-10 22:13:42
Writing application                      : mkvmerge v5.7.0 ('The Whirlwind') built on Jul  8 2012 20:08:51
Writing library                          : libebml v1.2.3 + libmatroska v1.3.0

Video
ID                                       : 1
Format                                   : AVC
Format/Info                              : Advanced Video Codec
Format profile                           : [email protected]
Format settings, CABAC                   : Yes
Format settings, ReFrames                : 8 frames
Codec ID                                 : V_MPEG4/ISO/AVC
Duration                                 : 2h 27mn
Bit rate                                 : 3 310 Kbps
Nominal bit rate                         : 3 500 Kbps
Width                                    : 1 280 pixels
Height                                   : 720 pixels
Display aspect ratio                     : 16:9
Frame rate mode                          : Constant
Frame rate                               : 23.976 fps
Color space                              : YUV
Chroma subsampling                       : 4:2:0
Bit depth                                : 8 bits
Scan type                                : Progressive
Bits/(Pixel*Frame)                       : 0.150
Stream size                              : 3.42 GiB (86%)
Title                                    : www.club-hd.com
Writing library                          : x264 core 120
Language                                 : Spanish
Default                                  : Yes
Forced                                   : No
Color primaries                          : BT.709
Transfer characteristics                 : BT.709
Matrix coefficients                      : BT.709

Audio
ID                                       : 2
Format                                   : AC-3
Format/Info                              : Audio Coding 3
Mode extension                           : CM (complete main)
Format settings, Endianness              : Big
Codec ID                                 : A_AC3
Duration                                 : 2h 27mn
Bit rate mode                            : Constant
Bit rate                                 : 448 Kbps
Channel(s)                               : 6 channels
Channel positions                        : Front: L C R, Side: L R, LFE
Sampling rate                            : 48.0 KHz
Bit depth                                : 16 bits
Compression mode                         : Lossy
Stream size                              : 474 MiB (12%)
Title                                    : www.club-hd.com
Language                                 : Spanish
Default                                  : Yes
Forced                                   : No

Text
ID                                       : 3
Format                                   : UTF-8
Codec ID                                 : S_TEXT/UTF8
Codec ID/Info                            : UTF-8 Plain Text
Title                                    : www.club-hd.com
Language                                 : Spanish
Default                                  : Yes
Forced                                   : No




Descarga.jpg



MEGA.jpg

Tenemos TODO el material de Club-HD disponible por Mega, enlaces 100% activos y online hasta la fecha

Llévate tus cuentas Mega PRO III gratis con tu membresía VIP!
Todos los posts vivos con links de Mega.
Todo el material de Club-HD desbloqueado y sin publicidad.

Obtén más información sobre nuestras Membresías VIP


UPLOADED_BANNER.png

Para ver este contenido oculto, debes dar click en el botón"Like", o cualquiera de las otras reacciones:

Me Gusta Me Gusta, Me Encanta Me Encanta, Jaja Jaja, Wow Wow, Triste Triste, Molesto Molesto



 
Última edición por un moderador:
Otro de los pedidos, increíble, el trailer de esta pela me dice que es muy buena, maestro grax mi laptop ya esta pidiendo pausa ...


:aplausos:
 
Biutiful, Excelente Revo, gracias por tan bueno y excelente aporte gran Master.
 
:aplausos::aplausos:BESTIA TOTAL:aplausos::aplausos: muchisimas graciasssss
 
NOOOOOO!!!!! :OHHH: GÉNERO: Drama | Drama social. Enfermedad, No yo paso, Aguante la ficción, carajo!!! xD
 
Volver