Blade (1998) 1080p BDRip Dual Latino-Inglés [Subt. Esp] (Fantástico. Terror. Acción)

Maestro Revolver

Administrador
9 Ago 2012
3.157
54.713


Blade (1998) 1080p BDRip Dual Latino-Inglés [Subt. Esp] (Fantástico. Terror. Acción)




Blade (1998) 1080p BDRip Dual Latino-Inglés [Subt. Esp] (Fantástico. Terror. Acción)


TÍTULO ORIGINAL: Blade
AÑO: 1998
DURACIÓN: 120 min.
PAÍS: USA
DIRECTOR: Stephen Norrington
GUIÓN: David S. Goyer (Cómic: Marv Wolfman & Gene Colan)
REPARTO: Wesley Snipes, Stephen Dorff, Kris Kristofferson, Sanaa Lathan, Donal Logue, Traci Lords, Udo Kier, N'Bushe Wright, Arly Jover
PRODUCTORA: New Line Cinema / Amen Ra Films
GÉNERO: Fantástico. Terror. Acción | Vampiros. Superhéroes. Cómic. Marvel Comics
Blade (1998) 1080p BDRip Dual Latino-Inglés [Subt. Esp] (Fantástico. Terror. Acción)
: http://www.imdb.com/title/tt0120611/




Blade (1998) 1080p BDRip Dual Latino-Inglés [Subt. Esp] (Fantástico. Terror. Acción)


En un mundo cohabitado en guerra por hombres y vampiros Blade es un vampiro que, al contrario que el resto, no se alimenta de humanos, y que pretende acabar con la raza de "seres superiores" que mordieron a su madre cuando estaba embarazada.




Blade (1998) 1080p BDRip Dual Latino-Inglés [Subt. Esp] (Fantástico. Terror. Acción)






Blade (1998) 1080p BDRip Dual Latino-Inglés [Subt. Esp] (Fantástico. Terror. Acción)


Blade (1998) 1080p BDRip Dual Latino-Inglés [Subt. Esp] (Fantástico. Terror. Acción)


Blade (1998) 1080p BDRip Dual Latino-Inglés [Subt. Esp] (Fantástico. Terror. Acción)


Blade (1998) 1080p BDRip Dual Latino-Inglés [Subt. Esp] (Fantástico. Terror. Acción)


Blade (1998) 1080p BDRip Dual Latino-Inglés [Subt. Esp] (Fantástico. Terror. Acción)


Blade (1998) 1080p BDRip Dual Latino-Inglés [Subt. Esp] (Fantástico. Terror. Acción)


Blade (1998) 1080p BDRip Dual Latino-Inglés [Subt. Esp] (Fantástico. Terror. Acción)


La pelicula NO tiene ninguna marca... solo colocamos el nombre de esta web en las capturas




Blade (1998) 1080p BDRip Dual Latino-Inglés [Subt. Esp] (Fantástico. Terror. Acción)


Código:
General
Format                                   : Matroska
Format version                           : Version 2
File size                                : 14.6 GiB
Duration                                 : 2h 0mn
Overall bit rate mode                    : Variable
Overall bit rate                         : 17.3 Mbps
Movie name                               : www.club-hd.com
Encoded date                             : UTC 2013-02-22 04:48:23
Writing application                      : mkvmerge v5.7.0 ('The Whirlwind') built on Jul  8 2012 20:08:51
Writing library                          : libebml v1.2.3 + libmatroska v1.3.0

Video
ID                                       : 1
Format                                   : AVC
Format/Info                              : Advanced Video Codec
Format profile                           : [email protected]
Format settings, CABAC                   : Yes
Format settings, ReFrames                : 4 frames
Format settings, GOP                     : M=3, N=18
Codec ID                                 : V_MPEG4/ISO/AVC
Duration                                 : 2h 0mn
Bit rate mode                            : Variable
Bit rate                                 : 14.7 Mbps
Maximum bit rate                         : 30.0 Mbps
Width                                    : 1 920 pixels
Height                                   : 1 080 pixels
Display aspect ratio                     : 16:9
Frame rate mode                          : Constant
Frame rate                               : 23.976 fps
Standard                                 : NTSC
Color space                              : YUV
Chroma subsampling                       : 4:2:0
Bit depth                                : 8 bits
Scan type                                : Progressive
Bits/(Pixel*Frame)                       : 0.295
Stream size                              : 12.3 GiB (85%)
Title                                    : www.club-hd.com
Language                                 : English
Default                                  : Yes
Forced                                   : No
Color primaries                          : BT.709
Transfer characteristics                 : BT.709
Matrix coefficients                      : BT.709

Audio #1
ID                                       : 2
Format                                   : AC-3
Format/Info                              : Audio Coding 3
Format profile                           : Dolby Digital
Mode extension                           : CM (complete main)
Format settings, Endianness              : Big
Codec ID                                 : A_AC3
Duration                                 : 2h 0mn
Bit rate mode                            : Constant
Bit rate                                 : 192 Kbps
Channel(s)                               : 2 channels
Channel positions                        : Front: L R
Sampling rate                            : 48.0 KHz
Bit depth                                : 16 bits
Compression mode                         : Lossy
Stream size                              : 165 MiB (1%)
Title                                    : www.club-hd.com  >>  Latino AC3 2.0
Language                                 : Spanish
Default                                  : Yes
Forced                                   : No

Audio #2
ID                                       : 3
Format                                   : AC-3
Format/Info                              : Audio Coding 3
Mode extension                           : CM (complete main)
Format settings, Endianness              : Big
Codec ID                                 : A_AC3
Duration                                 : 2h 0mn
Bit rate mode                            : Constant
Bit rate                                 : 640 Kbps
Channel(s)                               : 6 channels
Channel positions                        : Front: L C R, Side: L R, LFE
Sampling rate                            : 48.0 KHz
Bit depth                                : 16 bits
Compression mode                         : Lossy
Stream size                              : 551 MiB (4%)
Title                                    : www.club-hd.com  >>  Inglés AC3 5.1
Language                                 : English
Default                                  : No
Forced                                   : No

Audio #3
ID                                       : 4
Format                                   : DTS
Format/Info                              : Digital Theater Systems
Mode                                     : 16
Format settings, Endianness              : Big
Codec ID                                 : A_DTS
Duration                                 : 2h 0mn
Bit rate mode                            : Constant
Bit rate                                 : 1 509 Kbps
Channel(s)                               : 6 channels
Channel positions                        : Front: L C R, Side: L R, LFE
Sampling rate                            : 48.0 KHz
Bit depth                                : 24 bits
Compression mode                         : Lossy
Stream size                              : 1.27 GiB (9%)
Title                                    : www.club-hd.com  >>  Inglés DTS 5.1
Language                                 : English
Default                                  : No
Forced                                   : No

Text
ID                                       : 5
Format                                   : UTF-8
Codec ID                                 : S_TEXT/UTF8
Codec ID/Info                            : UTF-8 Plain Text
Language                                 : Spanish
Default                                  : No
Forced                                   : No




Blade (1998) 1080p BDRip Dual Latino-Inglés [Subt. Esp] (Fantástico. Terror. Acción)




Blade (1998) 1080p BDRip Dual Latino-Inglés [Subt. Esp] (Fantástico. Terror. Acción)


Enlaces de Mega solo disponibles para Miembros VIP

Compra tu Membresía VIP y apoya a Club-HD!

ATENCIÓN! Tenemos TODO el material de Club-HD disponible por Mega, enlaces 100% activos y online hasta la fecha

Llévate tus cuentas Mega PRO III gratis con tu membresía VIP!
Todos los posts vivos con links de Mega.
Todo el material de Club-HD desbloqueado y sin publicidad.

Click Aquí para más información.



Blade (1998) 1080p BDRip Dual Latino-Inglés [Subt. Esp] (Fantástico. Terror. Acción)

Enlaces de Mega solo disponibles para Miembros VIP

Compra tu Membresía VIP y apoya a Club-HD!

ATENCIÓN! Tenemos TODO el material de Club-HD disponible por Mega, enlaces 100% activos y online hasta la fecha

Llévate tus cuentas Mega PRO III gratis con tu membresía VIP!
Todos los posts vivos con links de Mega.
Todo el material de Club-HD desbloqueado y sin publicidad.

Click Aquí para más información.


Blade (1998) 1080p BDRip Dual Latino-Inglés [Subt. Esp] (Fantástico. Terror. Acción)


Enlaces de Mega solo disponibles para Miembros VIP

Compra tu Membresía VIP y apoya a Club-HD!

ATENCIÓN! Tenemos TODO el material de Club-HD disponible por Mega, enlaces 100% activos y online hasta la fecha

Llévate tus cuentas Mega PRO III gratis con tu membresía VIP!
Todos los posts vivos con links de Mega.
Todo el material de Club-HD desbloqueado y sin publicidad.

Click Aquí para más información.

Blade (1998) 1080p BDRip Dual Latino-Inglés [Subt. Esp] (Fantástico. Terror. Acción)


Para ver este contenido oculto, debes dar click en el botón "Like", o cualquiera de las otras reacciones:

Me Gusta Me Gusta, Me Encanta Me Encanta, Jaja Jaja, Wow Wow, Triste Triste, Molesto Molesto

Blade (1998) 1080p BDRip Dual Latino-Inglés [Subt. Esp] (Fantástico. Terror. Acción)


Para ver este contenido oculto, debes dar click en el botón "Like", o cualquiera de las otras reacciones:

Me Gusta Me Gusta, Me Encanta Me Encanta, Jaja Jaja, Wow Wow, Triste Triste, Molesto Molesto
 
Última edición por un moderador:

Joker

Honorífico
27 Ago 2012
1.122
2.614
Desc_g_

Ya me había asustado, creí que les habían cerrado la pagina por piratería xDD, ya estaba listo para lanzarme por la ventana... ok no xD

Regresando y con esta enorme saga, se les agradece en serio!!

Saludos :D
 
27 Ago 2012
168
5
excelente aporte revolver como simpre trayendo cosas buenas esta saga la queria en esta calidad hace tiempo gracias por subirla
 
Arriba