Blade II (2002) 1080p BDRip Dual Latino-Inglés [Subt. Esp] (Fantástico. Terror. Acción)

Maestro Revolver

Administrador
Registro
9 Ago 2012
Mensajes
3.157
Reacciones (ptje)
55.208
Aporte recuperado gracias a nuestro amigo jovivaver

Blade-2-1080p.jpg




FichaTecnica.jpg


TÍTULO ORIGINAL: Blade II (Blade 2)
AÑO: 2002
DURACIÓN: 108 min.
PAÍS: USA
DIRECTOR: Guillermo del Toro
GUIÓN: David S. Goyer (Cómic: Marv Wolfman & Gene Colan)
REPARTO: Wesley Snipes, Kris Kristofferson, Norman Reedus, Leonor Varela, Ron Perlman, Tcheky Karyo, Luke Gross, Matt Schulze, Thomas Kretschmann, Danny John Jules, Tony Curran, Donnie Yen, Marit Velle Kile, Daz Crawford, Santiago Segura
PRODUCTORA: New Line Cinema
GÉNERO: Fantástico. Acción. Terror | Vampiros. Superhéroes. Cómic. Marvel Comics. Secuela
imdb-logo.png
: http://www.imdb.com/title/tt0187738/




Sinopsis.jpg


Una nueva raza de vampiros, los Reapers, surge para atacar tanto a los humanos como a los de su propia raza, causando el terror. El Consejo de la Sombra, un grupo de vampiros que teme por su supervivencia y que tiene su sede en Praga, contacta con Blade para que acabe con ellos.




Trailer.jpg






Capturas.jpg


1.jpg


2.jpg


3.jpg


4.jpg


5.jpg


6.jpg


La pelicula NO tiene ninguna marca... solo colocamos el nombre de esta web en las capturas




MediaInfo.jpg


Código:
General
Format                                   : Matroska
Format version                           : Version 2
File size                                : 14.2 GiB
Duration                                 : 1h 56mn
Overall bit rate mode                    : Variable
Overall bit rate                         : 17.3 Mbps
Movie name                               : www.club-hd.com
Encoded date                             : UTC 2013-02-22 21:28:22
Writing application                      : mkvmerge v5.7.0 ('The Whirlwind') built on Jul  8 2012 20:08:51
Writing library                          : libebml v1.2.3 + libmatroska v1.3.0

Video
ID                                       : 1
Format                                   : AVC
Format/Info                              : Advanced Video Codec
Format profile                           : [email protected]
Format settings, CABAC                   : Yes
Format settings, ReFrames                : 4 frames
Codec ID                                 : V_MPEG4/ISO/AVC
Duration                                 : 1h 56mn
Bit rate mode                            : Variable
Bit rate                                 : 14.7 Mbps
Maximum bit rate                         : 30.0 Mbps
Width                                    : 1 920 pixels
Height                                   : 1 080 pixels
Display aspect ratio                     : 16:9
Frame rate mode                          : Constant
Frame rate                               : 23.976 fps
Standard                                 : NTSC
Color space                              : YUV
Chroma subsampling                       : 4:2:0
Bit depth                                : 8 bits
Scan type                                : Progressive
Bits/(Pixel*Frame)                       : 0.295
Stream size                              : 12.0 GiB (85%)
Title                                    : www.club-hd.com
Language                                 : English
Default                                  : Yes
Forced                                   : No
Color primaries                          : BT.709
Transfer characteristics                 : BT.709
Matrix coefficients                      : BT.709

Audio #1
ID                                       : 2
Format                                   : AC-3
Format/Info                              : Audio Coding 3
Format profile                           : Dolby Digital
Mode extension                           : CM (complete main)
Format settings, Endianness              : Big
Codec ID                                 : A_AC3
Duration                                 : 1h 56mn
Bit rate mode                            : Constant
Bit rate                                 : 192 Kbps
Channel(s)                               : 2 channels
Channel positions                        : Front: L R
Sampling rate                            : 48.0 KHz
Bit depth                                : 16 bits
Compression mode                         : Lossy
Stream size                              : 160 MiB (1%)
Title                                    : www.club-hd.com  >>  Latino AC3 2.0
Language                                 : Spanish
Default                                  : Yes
Forced                                   : No

Audio #2
ID                                       : 3
Format                                   : AC-3
Format/Info                              : Audio Coding 3
Mode extension                           : CM (complete main)
Format settings, Endianness              : Big
Codec ID                                 : A_AC3
Duration                                 : 1h 56mn
Bit rate mode                            : Constant
Bit rate                                 : 640 Kbps
Channel(s)                               : 6 channels
Channel positions                        : Front: L C R, Side: L R, LFE
Sampling rate                            : 48.0 KHz
Bit depth                                : 16 bits
Compression mode                         : Lossy
Stream size                              : 535 MiB (4%)
Title                                    : www.club-hd.com  >>  Inglés AC3 5.1
Language                                 : English
Default                                  : No
Forced                                   : No

Audio #3
ID                                       : 4
Format                                   : DTS
Format/Info                              : Digital Theater Systems
Mode                                     : 16
Format settings, Endianness              : Big
Codec ID                                 : A_DTS
Duration                                 : 1h 56mn
Bit rate mode                            : Constant
Bit rate                                 : 1 509 Kbps
Channel(s)                               : 6 channels
Channel positions                        : Front: L C R, Side: L R, LFE
Sampling rate                            : 48.0 KHz
Bit depth                                : 24 bits
Compression mode                         : Lossy
Stream size                              : 1.23 GiB (9%)
Title                                    : www.club-hd.com  >>  Inglés DTS 5.1
Language                                 : English
Default                                  : No
Forced                                   : No

Text
ID                                       : 5
Format                                   : UTF-8
Codec ID                                 : S_TEXT/UTF8
Codec ID/Info                            : UTF-8 Plain Text
Language                                 : Spanish
Default                                  : No
Forced                                   : No




CONTRASE%C3%91A-FINAL.png


Código:
www.club-hd.com




Descarga.jpg



MEGA.jpg

Tenemos TODO el material de Club-HD disponible por Mega, enlaces 100% activos y online hasta la fecha

Llévate tus cuentas Mega PRO III gratis con tu membresía VIP!
Todos los posts vivos con links de Mega.
Todo el material de Club-HD desbloqueado y sin publicidad.

Obtén más información sobre nuestras Membresías VIP



up.jpg

Para ver este contenido oculto, debes dar click en el botón"Like", o cualquiera de las otras reacciones:

Me Gusta Me Gusta, Me Encanta Me Encanta, Jaja Jaja, Wow Wow, Triste Triste, Molesto Molesto
 
Última edición por un moderador:
:aplausos:

Revolver el mejor de todos por mucho :aplausos:

Esta trilogia es muy buena y que mejor que con la calidad de Revolver1080 :D

Muchas gracias por tus grandes aportes que te hacen mas grande :aplausos:
 
bye R21! Gracias maestro por este increíble aporte!!! Tb_up3Tb_up3 Pero voy a esperar la versión 720 xDxD Saludos guit4r_3
 
gracias revolver la segunda, una mas y completa la trilogia en la gran calidad, estas sagas valen mucho la pena
 
Desc_g_

Muchas gracias, excelente saga en calidad ClubHD, no se puede pedir mas

Gracias!!!

Saludos :D
 
Volver