Blade Trinity (2004) UNRATED 1080p BDRip Dual Latino-Inglés [Subt. Esp] (Fantástico. Terror. Acción)

Maestro Revolver

Administrador
Registro
9 Ago 2012
Mensajes
3.157
Reacciones (ptje)
54.925
Aporte recuperado gracias a nuestro amigo jovivaver

Blade-Trinity-1080p.jpg




FichaTecnica.jpg


TÍTULO ORIGINAL: Blade Trinity (Blade 3)
AÑO: 2004
DURACIÓN: 113 min.
PAÍS: USA
DIRECTOR: David S. Goyer
GUIÓN: David S. Goyer (Personajes: Marv Wolfman & Gene Colan)
REPARTO: Wesley Snipes, Ryan Reynolds, Jessica Biel, Dominic Purcell, Parker Posey, Natasha Lyonne, James Remar, Eric Bogosian, Kris Kristofferson
PRODUCTORA: New Line Cinema
GÉNERO: Acción. Fantástico. Terror | Superhéroes. Marvel Comics. Vampiros. Cómic. Secuela

imdb-logo.png
: http://www.imdb.com/title/tt0359013/




Sinopsis.jpg


Durante años, Blade ha luchado contra los vampiros sin que el mundo supiera lo que sucedía en los bajos fondos. Pero ahora, tras caer en las redes del FBI, se ve forzado a salir a la luz del día para unir sus fuerzas con un clan de humanos cazadores de vampiros que nunca supo que existían, los Nightstalkers. Junto a Abigail y Hannibal, Blade sigue la pista de una Antigua criatura que lo está acechando el vampiro original: Drácula.




Trailer.jpg






Capturas.jpg


1.jpg


2.jpg


3.jpg


4.jpg


5.jpg


6.jpg


La pelicula NO tiene ninguna marca... solo colocamos el nombre de esta web en las capturas




MediaInfo.jpg


Código:
General
Format                                   : Matroska
Format version                           : Version 2
File size                                : 15.2 GiB
Duration                                 : 2h 2mn
Overall bit rate                         : 17.8 Mbps
Movie name                               : www.club-hd.com
Encoded date                             : UTC 2013-02-23 21:26:31
Writing application                      : mkvmerge v5.7.0 ('The Whirlwind') built on Jul  8 2012 20:08:51
Writing library                          : libebml v1.2.3 + libmatroska v1.3.0

Video
ID                                       : 1
Format                                   : AVC
Format/Info                              : Advanced Video Codec
Format profile                           : [email protected]
Format settings, CABAC                   : Yes
Format settings, ReFrames                : 5 frames
Codec ID                                 : V_MPEG4/ISO/AVC
Duration                                 : 2h 2mn
Bit rate                                 : 15.3 Mbps
Width                                    : 1 920 pixels
Height                                   : 816 pixels
Display aspect ratio                     : 2.35:1
Frame rate mode                          : Constant
Frame rate                               : 23.976 fps
Color space                              : YUV
Chroma subsampling                       : 4:2:0
Bit depth                                : 8 bits
Scan type                                : Progressive
Bits/(Pixel*Frame)                       : 0.407
Stream size                              : 13.1 GiB (86%)
Title                                    : www.club-hd.com
Writing library                          : x264 core 125 r2200kMod 999b753
Language                                 : English
Default                                  : Yes
Forced                                   : No

Audio #1
ID                                       : 2
Format                                   : AC-3
Format/Info                              : Audio Coding 3
Mode extension                           : CM (complete main)
Format settings, Endianness              : Big
Codec ID                                 : A_AC3
Duration                                 : 2h 2mn
Bit rate mode                            : Constant
Bit rate                                 : 192 Kbps
Channel(s)                               : 2 channels
Channel positions                        : Front: L R
Sampling rate                            : 48.0 KHz
Bit depth                                : 16 bits
Compression mode                         : Lossy
Stream size                              : 168 MiB (1%)
Title                                    : www.club-hd.com  >>  Latino AC3 2.0
Language                                 : Spanish
Default                                  : Yes
Forced                                   : No

Audio #2
ID                                       : 3
Format                                   : AC-3
Format/Info                              : Audio Coding 3
Mode extension                           : CM (complete main)
Format settings, Endianness              : Big
Codec ID                                 : A_AC3
Duration                                 : 2h 2mn
Bit rate mode                            : Constant
Bit rate                                 : 448 Kbps
Channel(s)                               : 6 channels
Channel positions                        : Front: L C R, Side: L R, LFE
Sampling rate                            : 48.0 KHz
Bit depth                                : 16 bits
Compression mode                         : Lossy
Stream size                              : 392 MiB (3%)
Title                                    : www.club-hd.com  >>  Inglés AC3 5.1
Language                                 : English
Default                                  : No
Forced                                   : No

Audio #3
ID                                       : 4
Format                                   : DTS
Format/Info                              : Digital Theater Systems
Format profile                           : ES
Mode                                     : 16
Format settings, Endianness              : Big
Codec ID                                 : A_DTS
Duration                                 : 2h 2mn
Bit rate mode                            : Constant
Bit rate                                 : 1 509 Kbps
Channel(s)                               : 7 channels / 6 channels
Channel positions                        : Front: L C R, Side: L R, Back: C, LFE / Front: L C R, Side: L R, LFE
Sampling rate                            : 48.0 KHz
Bit depth                                : 24 bits
Compression mode                         : Lossy
Stream size                              : 1.29 GiB (8%)
Title                                    : www.club-hd.com  >>  Inglés DTS 6.1
Language                                 : English
Default                                  : No
Forced                                   : No

Text
ID                                       : 5
Format                                   : UTF-8
Codec ID                                 : S_TEXT/UTF8
Codec ID/Info                            : UTF-8 Plain Text
Language                                 : Spanish
Default                                  : No
Forced                                   : No

Menu #1
00:00:00.000                             : en:Chapter 1
00:06:47.407                             : en:Chapter 2
00:12:59.362                             : en:Chapter 3
00:17:16.077                             : en:Chapter 4
00:18:48.419                             : en:Chapter 5
00:22:48.284                             : en:Chapter 6
00:27:05.624                             : en:Chapter 7
00:34:22.894                             : en:Chapter 8
00:41:07.674                             : en:Chapter 9
00:45:40.905                             : en:Chapter 10
00:50:55.886                             : en:Chapter 11
00:54:10.747                             : en:Chapter 12
00:58:08.026                             : en:Chapter 13
01:08:05.164                             : en:Chapter 14
01:17:54.712                             : en:Chapter 15
01:21:59.915                             : en:Chapter 16
01:28:32.057                             : en:Chapter 17
01:33:30.230                             : en:Chapter 18
01:41:31.711                             : en:Chapter 19
01:46:13.158                             : en:Chapter 20
01:50:45.013                             : en:Chapter 21
01:53:51.992                             : en:Chapter 22

Menu #2
00:00:00.054                             : en:00:00:00.054 / en:00:00:00.054




CONTRASE%C3%91A-FINAL.png


Código:
www.club-hd.com




Descarga.jpg



MEGA.jpg

Tenemos TODO el material de Club-HD disponible por Mega, enlaces 100% activos y online hasta la fecha

Llévate tus cuentas Mega PRO III gratis con tu membresía VIP!
Todos los posts vivos con links de Mega.
Todo el material de Club-HD desbloqueado y sin publicidad.

Obtén más información sobre nuestras Membresías VIP



up.jpg

Para ver este contenido oculto, debes dar click en el botón"Like", o cualquiera de las otras reacciones:

Me Gusta Me Gusta, Me Encanta Me Encanta, Jaja Jaja, Wow Wow, Triste Triste, Molesto Molesto
 
Última edición por un moderador:
:aplausos:

Uno tras otro, no paras ni un minuto de prepararnos estos super aportes, otra saga completa a tu cuenta :LXR:

y toda en 1080 :D que mas se puede pedir, muchas gracias Revolver excelentes aportes para nuestra gran comunidad Club-HD

:aplausos:
 
excelente con esta terminamos, una gran saga en la gran calidad como siempre, gracias revolver, por cierto genial tu nuevo avatar, saludos
 
Desc_g_

Excelente!!!

Muchas Gracias!!! A completar la trilogía se ha dicho

Saludos :D
 
Volver