Blood of Zeus: Season 1 (2020) 1080p NF WEB-DL Latino-Inglés [Subt.Esp] (Serie de TV. Animación)

LuchoO

責任者

Moderador
Uploader
Registro
15 Ago 2015
Mensajes
1.872
Reacciones (ptje)
28.076

cover1.png



FICHA.TECNICA.png

Captura.JPG


SINOPSIS.PNG



Serie de TV (2020-Actualidad). 8 episodios. Cuenta la historia de un joven hombre que, repudiado por su propio pueblo, descubre que es el hijo ilegítimo de Zeus. Él, por sus propios medios, puede salvar tanto al cielo como a la Tierra, pero para ello debe sobrevivir a la terrible ira de una diosa que le quiere muerto y a las monstruosas fuerzas malignas con las que ella se alía.

7.5



TRAILER.PNG



CAPTURAS.PNG


BOZ.0001.jpeg


BOZ.0002.jpeg


BOZ.0003.jpeg


BOZ.0004.jpeg



MEDIAINFO.PNG

General
Complete name : Blood of Zeus S01E01 NF WEB-DL 1080p H264 Dual.mkv
Format : Matroska
Format version : Version 4
File size : 981 MiB
Duration : 27 min 38 s
Overall bit rate mode : Variable
Overall bit rate : 4 962 kb/s
Frame rate : 24.000 FPS
Movie name : [Club-HD] Blood of Zeus S01E01 NF WEB-DL 1080p H264 Dual.mkv
Encoded date : 2024-05-06 01:00:14 UTC
Writing application : mkvmerge v77.0 ('Elemental') 64-bit
Writing library : libebml v1.4.4 + libmatroska v1.7.1

Video
ID : 1
Format : AVC
Format/Info : Advanced Video Codec
Format profile : Main@L4
Format settings : CABAC / 3 Ref Frames
Format settings, CABAC : Yes
Format settings, Reference frames : 3 frames
Codec ID : V_MPEG4/ISO/AVC
Duration : 27 min 38 s
Bit rate mode : Variable
Bit rate : 3 830 kb/s
Maximum bit rate : 5 745 kb/s
Width : 1 920 pixels
Height : 1 080 pixels
Display aspect ratio : 16:9
Frame rate mode : Constant
Frame rate : 24.000 FPS
Color space : YUV
Chroma subsampling : 4:2:0
Bit depth : 8 bits
Scan type : Progressive
Bits/(Pixel*Frame) : 0.077
Stream size : 728 MiB (74%)
Writing library : x264 core 148 r2722 1b0121b
Encoding settings : cabac=1 / ref=3 / deblock=1:0:0 / analyse=0x1:0x111 / me=umh / subme=10 / psy=1 / psy_rd=1.00:0.00 / mixed_ref=1 / me_range=24 / chroma_me=1 / trellis=2 / 8x8dct=0 / cqm=0 / deadzone=21,11 / fast_pskip=1 / chroma_qp_offset=-2 / threads=8 / lookahead_threads=1 / sliced_threads=0 / nr=0 / decimate=1 / interlaced=0 / bluray_compat=0 / stitchable=1 / constrained_intra=0 / bframes=2 / b_pyramid=0 / b_adapt=2 / b_bias=0 / direct=3 / weightb=1 / open_gop=0 / weightp=2 / keyint=250 / keyint_min=24 / scenecut=0 / intra_refresh=0 / rc_lookahead=48 / rc=2pass / mbtree=1 / bitrate=3830 / ratetol=1.0 / qcomp=0.50 / qpmin=6 / qpmax=51 / qpstep=4 / cplxblur=20.0 / qblur=0.5 / vbv_maxrate=5745 / vbv_bufsize=7660 / nal_hrd=vbr / filler=0 / ip_ratio=1.40 / aq=1:1.00
Default : Yes
Forced : No

Audio #1
ID : 2
Format : E-AC-3
Format/Info : Enhanced AC-3
Commercial name : Dolby Digital Plus
Codec ID : A_EAC3
Duration : 27 min 36 s
Bit rate mode : Constant
Bit rate : 640 kb/s
Channel(s) : 6 channels
Channel layout : L R C LFE Ls Rs
Sampling rate : 48.0 kHz
Frame rate : 31.250 FPS (1536 SPF)
Compression mode : Lossy
Stream size : 126 MiB (13%)
Language : Spanish (Latin America)
Service kind : Complete Main
Default : Yes
Forced : No

Audio #2
ID : 3
Format : E-AC-3
Format/Info : Enhanced AC-3
Commercial name : Dolby Digital Plus
Codec ID : A_EAC3
Duration : 27 min 38 s
Bit rate mode : Constant
Bit rate : 640 kb/s
Channel(s) : 6 channels
Channel layout : L R C LFE Ls Rs
Sampling rate : 48.0 kHz
Frame rate : 31.250 FPS (1536 SPF)
Compression mode : Lossy
Stream size : 127 MiB (13%)
Title : English
Language : English
Service kind : Complete Main
Default : No
Forced : No

Text #1
ID : 4
Format : UTF-8
Codec ID : S_TEXT/UTF8
Codec ID/Info : UTF-8 Plain Text
Duration : 26 min 23 s
Bit rate : 1 b/s
Frame rate : 0.004 FPS
Count of elements : 6
Stream size : 248 Bytes (0%)
Title : Forced
Language : Spanish
Default : Yes
Forced : Yes

Text #2
ID : 5
Format : UTF-8
Codec ID : S_TEXT/UTF8
Codec ID/Info : UTF-8 Plain Text
Duration : 26 min 22 s
Bit rate : 32 b/s
Frame rate : 0.102 FPS
Count of elements : 162
Stream size : 6.27 KiB (0%)
Title : Latin America
Language : Spanish (Latin America)
Default : No
Forced : No

Text #3
ID : 6
Format : UTF-8
Codec ID : S_TEXT/UTF8
Codec ID/Info : UTF-8 Plain Text
Duration : 26 min 23 s
Bit rate : 37 b/s
Frame rate : 0.141 FPS
Count of elements : 224
Stream size : 7.29 KiB (0%)
Title : SDH
Language : Spanish
Default : No
Forced : No

Text #4
ID : 7
Format : UTF-8
Codec ID : S_TEXT/UTF8
Codec ID/Info : UTF-8 Plain Text
Duration : 24 min 14 s
Bit rate : 40 b/s
Frame rate : 0.195 FPS
Count of elements : 284
Stream size : 7.23 KiB (0%)
Title : English [SDH]
Language : English
Default : No
Forced : No


DESCARGA.PNG





⭐ 1 LINK MKV VIP ⭐

Mega.png

Tenemos TODO el material de Club-HD disponible por Mega, enlaces 100% activos y online hasta la fecha

Llévate tus cuentas Mega PRO III gratis con tu membresía VIP!
Todos los posts vivos con links de Mega.
Todo el material de Club-HD desbloqueado y sin publicidad.

Obtén más información sobre nuestras Membresías VIP


LINKS FREE PÚBLICOS

Fireload.png


¡Click aquí para descargar desde Fireload!


1cloudfile.png


¡Click aquí para descargar desde 1cloudfile!


"Solo Audio Latino"
 
Volver