Blood of Zeus: Season 2 (2024) 1080p NF WEB-DL Latino-Inglés [Subt.Esp] (Serie de TV. Animación)

LuchoO

責任者

Moderador
Uploader
Registro
15 Ago 2015
Mensajes
1.872
Reacciones (ptje)
28.075

covers02.png



FICHA.TECNICA.png

Captura.JPG


SINOPSIS.PNG



Serie de TV (2020-Actualidad). 8 episodios. Cuenta la historia de un joven hombre que, repudiado por su propio pueblo, descubre que es el hijo ilegítimo de Zeus. Él, por sus propios medios, puede salvar tanto al cielo como a la Tierra, pero para ello debe sobrevivir a la terrible ira de una diosa que le quiere muerto y a las monstruosas fuerzas malignas con las que ella se alía.

7.5



TRAILER.PNG



CAPTURAS.PNG


B.S02.0001.jpeg


B.S02.0002.jpeg


B.S02.0003.jpeg


B.S02.0004.jpeg



MEDIAINFO.PNG

General
Complete name : Blood of Zeus S02E01 NF WEB-DL 1080p H264 Dual.mkv
Format : Matroska
Format version : Version 4
File size : 1.35 GiB
Duration : 31 min 2 s
Overall bit rate mode : Variable
Overall bit rate : 6 229 kb/s
Frame rate : 24.000 FPS
Movie name : [Club-HD] Blood of Zeus S02E01 NF WEB-DL 1080p H264 Dual.mkv
Encoded date : 2024-05-10 11:33:29 UTC
Writing application : mkvmerge v77.0 ('Elemental') 64-bit
Writing library : libebml v1.4.4 + libmatroska v1.7.1

Video
ID : 1
Format : AVC
Format/Info : Advanced Video Codec
Format profile : Main@L4
Format settings : CABAC / 3 Ref Frames
Format settings, CABAC : Yes
Format settings, Reference frames : 3 frames
Codec ID : V_MPEG4/ISO/AVC
Duration : 31 min 2 s
Bit rate mode : Variable
Bit rate : 5 000 kb/s
Maximum bit rate : 7 500 kb/s
Width : 1 920 pixels
Height : 1 080 pixels
Display aspect ratio : 16:9
Frame rate mode : Constant
Frame rate : 24.000 FPS
Color space : YUV
Chroma subsampling : 4:2:0
Bit depth : 8 bits
Scan type : Progressive
Bits/(Pixel*Frame) : 0.100
Stream size : 1.04 GiB (77%)
Writing library : x264 core 148 r2727 7d026e8
Encoding settings : cabac=1 / ref=3 / deblock=1:0:0 / analyse=0x1:0x111 / me=umh / subme=10 / psy=1 / psy_rd=1.00:0.00 / mixed_ref=1 / me_range=24 / chroma_me=1 / trellis=2 / 8x8dct=0 / cqm=0 / deadzone=21,11 / fast_pskip=1 / chroma_qp_offset=-2 / threads=6 / lookahead_threads=1 / sliced_threads=0 / nr=0 / decimate=1 / interlaced=0 / bluray_compat=0 / stitchable=1 / constrained_intra=0 / bframes=2 / b_pyramid=0 / b_adapt=2 / b_bias=0 / direct=3 / weightb=1 / open_gop=0 / weightp=2 / keyint=240 / keyint_min=121 / scenecut=0 / intra_refresh=0 / rc_lookahead=48 / rc=2pass / mbtree=1 / bitrate=5000 / ratetol=1.0 / qcomp=0.50 / qpmin=6 / qpmax=51 / qpstep=4 / cplxblur=20.0 / qblur=0.5 / vbv_maxrate=7500 / vbv_bufsize=10000 / nal_hrd=vbr / filler=0 / ip_ratio=1.40 / aq=1:1.00
Language : English
Default : Yes
Forced : No

Audio #1
ID : 2
Format : E-AC-3
Format/Info : Enhanced AC-3
Commercial name : Dolby Digital Plus
Codec ID : A_EAC3
Duration : 31 min 2 s
Bit rate mode : Constant
Bit rate : 640 kb/s
Channel(s) : 6 channels
Channel layout : L R C LFE Ls Rs
Sampling rate : 48.0 kHz
Frame rate : 31.250 FPS (1536 SPF)
Compression mode : Lossy
Stream size : 142 MiB (10%)
Language : Spanish (Latin America)
Service kind : Complete Main
Default : Yes
Forced : No

Audio #2
ID : 3
Format : E-AC-3 JOC
Format/Info : Enhanced AC-3 with Joint Object Coding
Commercial name : Dolby Digital Plus with Dolby Atmos
Codec ID : A_EAC3
Duration : 31 min 2 s
Bit rate mode : Constant
Bit rate : 768 kb/s
Channel(s) : 6 channels
Channel layout : L R C LFE Ls Rs
Sampling rate : 48.0 kHz
Frame rate : 31.250 FPS (1536 SPF)
Compression mode : Lossy
Stream size : 170 MiB (12%)
Language : English
Service kind : Complete Main
Default : No
Forced : No
Complexity index : 16
Number of dynamic objects : 15
Bed channel count : 1 channel
Bed channel configuration : LFE

Text #1
ID : 4
Format : UTF-8
Codec ID : S_TEXT/UTF8
Codec ID/Info : UTF-8 Plain Text
Duration : 3 min 16 s
Bit rate : 1 b/s
Frame rate : 0.010 FPS
Count of elements : 2
Stream size : 45.0 Bytes (0%)
Title : Forced
Language : Spanish (Latin America)
Default : Yes
Forced : Yes

Text #2
ID : 5
Format : UTF-8
Codec ID : S_TEXT/UTF8
Codec ID/Info : UTF-8 Plain Text
Duration : 29 min 34 s
Bit rate : 19 b/s
Frame rate : 0.081 FPS
Count of elements : 144
Stream size : 4.24 KiB (0%)
Title : Latin American
Language : Spanish (Latin America)
Default : No
Forced : No

Text #3
ID : 6
Format : UTF-8
Codec ID : S_TEXT/UTF8
Codec ID/Info : UTF-8 Plain Text
Duration : 29 min 36 s
Bit rate : 26 b/s
Frame rate : 0.104 FPS
Count of elements : 185
Stream size : 5.65 KiB (0%)
Title : SDH
Language : Spanish (Latin America)
Default : No
Forced : No

Text #4
ID : 7
Format : UTF-8
Codec ID : S_TEXT/UTF8
Codec ID/Info : UTF-8 Plain Text
Duration : 29 min 34 s
Bit rate : 19 b/s
Frame rate : 0.081 FPS
Count of elements : 144
Stream size : 4.26 KiB (0%)
Language : English
Default : No
Forced : No

Menu
00:00:00.000 : en:part 01
00:00:04.500 : en:Recap
00:01:05.500 : en:part 02
00:28:15.450 : en:Credits


DESCARGA.PNG





⭐ 1 LINK MKV VIP ⭐

Mega.png

Tenemos TODO el material de Club-HD disponible por Mega, enlaces 100% activos y online hasta la fecha

Llévate tus cuentas Mega PRO III gratis con tu membresía VIP!
Todos los posts vivos con links de Mega.
Todo el material de Club-HD desbloqueado y sin publicidad.

Obtén más información sobre nuestras Membresías VIP


LINKS FREE PÚBLICOS

Fireload.png


¡Click aquí para descargar desde Fireload!


1cloudfile.png


¡Click aquí para descargar desde 1cloudfile!


"Solo Audio Latino"
 
Volver