• Este aviso va dirigido a todos los nuevos miembros recien llegados a Club-HD. Les recordamos que la direccion URL de este sitio web es , asi que deben acceder únicamente por esta URL. Sean todos bienvenidos al Club!

Bloodshot (2020) 1080p BDRip Dual Latino-Inglés [Subt. Esp] (Acción. Ciencia Ficción)

Bebesaurio

Novio de Vizard
Miembro del Staff
Moderador
Uploader
Registrado
12 Mar 2018
Mensajes
556
Puntos de reacción
13,334
Puntos
93
Edad
21



SINOPSIS

Ray Garrison (Vin Diesel), también conocido como Bloodshot, es resucitado por la compañía Rising Spirit Technologies a través del uso de nanotecnología. Mientras lucha por recuperar la memoria, Ray trata de volver al ser el que era antes de sufrir el accidente que le dejó amnésico... Película basada en el cómic "Valiant".

MÁS INFORMACIÓN




TRAILER



CAPTURAS











MEDIAINFO

Código:
General
Unique ID                                : 24358261528983456526384262862813915264 (0x12533B03D46F6250C01A460321DDE880)
Format                                   : Matroska
Format version                           : Version 4
File size                                : 13.3 GiB
Duration                                 : 1 h 49 min
Overall bit rate mode                    : Variable
Overall bit rate                         : 17.4 Mb/s
Encoded date                             : UTC 2020-04-25 23:00:30
Writing application                      : mkvmerge v32.0.0 ('Astral Progressions') 64-bit
Writing library                          : libebml v1.3.7 + libmatroska v1.5.0

Video
ID                                       : 1
Format                                   : AVC
Format/Info                              : Advanced Video Codec
Format profile                           : High@L4.1
Format settings                          : CABAC / 5 Ref Frames
Format settings, CABAC                   : Yes
Format settings, Reference frames        : 5 frames
Codec ID                                 : V_MPEG4/ISO/AVC
Duration                                 : 1 h 49 min
Bit rate                                 : 14.5 Mb/s
Width                                    : 1 920 pixels
Height                                   : 804 pixels
Display aspect ratio                     : 2.40:1
Frame rate mode                          : Constant
Frame rate                               : 23.976 (24000/1001) FPS
Color space                              : YUV
Chroma subsampling                       : 4:2:0
Bit depth                                : 8 bits
Scan type                                : Progressive
Bits/(Pixel*Frame)                       : 0.392
Stream size                              : 11.1 GiB (83%)
Writing library                          : x264 core 160 r3000 33f9e14
Encoding settings                        : cabac=1 / ref=5 / deblock=1:-3:-3 / analyse=0x3:0x133 / me=umh / subme=10 / psy=1 / psy_rd=1.00:0.00 / mixed_ref=1 / me_range=32 / chroma_me=1 / trellis=2 / 8x8dct=1 / cqm=0 / deadzone=21,11 / fast_pskip=0 / chroma_qp_offset=-2 / threads=12 / lookahead_threads=2 / sliced_threads=0 / nr=0 / decimate=0 / interlaced=0 / bluray_compat=0 / constrained_intra=0 / bframes=8 / b_pyramid=2 / b_adapt=2 / b_bias=0 / direct=3 / weightb=1 / open_gop=0 / weightp=2 / keyint=250 / keyint_min=23 / scenecut=40 / intra_refresh=0 / rc=crf / mbtree=0 / crf=16.7 / qcomp=0.60 / qpmin=0 / qpmax=69 / qpstep=4 / ip_ratio=1.40 / pb_ratio=1.30 / aq=3:0.80
Language                                 : English
Default                                  : Yes
Forced                                   : No

Audio #1
ID                                       : 2
Format                                   : AC-3
Format/Info                              : Audio Coding 3
Commercial name                          : Dolby Digital
Codec ID                                 : A_AC3
Duration                                 : 1 h 49 min
Bit rate mode                            : Constant
Bit rate                                 : 640 kb/s
Channel(s)                               : 6 channels
Channel layout                           : L R C LFE Ls Rs
Sampling rate                            : 48.0 kHz
Frame rate                               : 31.250 FPS (1536 SPF)
Compression mode                         : Lossy
Stream size                              : 500 MiB (4%)
Title                                    : Latino
Language                                 : Spanish
Service kind                             : Complete Main
Default                                  : Yes
Forced                                   : Yes

Audio #2
ID                                       : 3
Format                                   : DTS XLL
Format/Info                              : Digital Theater Systems
Commercial name                          : DTS-HD Master Audio
Codec ID                                 : A_DTS
Duration                                 : 1 h 49 min
Bit rate mode                            : Variable
Bit rate                                 : 2 258 kb/s
Channel(s)                               : 6 channels
Channel layout                           : C L R Ls Rs LFE
Sampling rate                            : 48.0 kHz
Frame rate                               : 93.750 FPS (512 SPF)
Bit depth                                : 16 bits
Compression mode                         : Lossless
Stream size                              : 1.72 GiB (13%)
Title                                    : English
Language                                 : English
Default                                  : No
Forced                                   : No

Text #1
ID                                       : 4
Format                                   : UTF-8
Codec ID                                 : S_TEXT/UTF8
Codec ID/Info                            : UTF-8 Plain Text
Duration                                 : 1 h 44 min
Bit rate                                 : 50 b/s
Count of elements                        : 1171
Stream size                              : 38.8 KiB (0%)
Title                                    : Completos
Language                                 : Spanish
Default                                  : No
Forced                                   : No

Text #2
ID                                       : 5
Format                                   : PGS
Muxing mode                              : zlib
Codec ID                                 : S_HDMV/PGS
Codec ID/Info                            : Picture based subtitle format used on BDs/HD-DVDs
Duration                                 : 1 h 48 min
Bit rate                                 : 25.7 kb/s
Count of elements                        : 2204
Stream size                              : 19.9 MiB (0%)
Language                                 : Spanish
Default                                  : No
Forced                                   : No

Menu
00:00:00.000                             : en:Chapter 01
00:07:06.384                             : en:Chapter 02
00:13:56.210                             : en:Chapter 03
00:20:36.861                             : en:Chapter 04
00:25:05.546                             : en:Chapter 05
00:32:11.179                             : en:Chapter 06
00:41:41.499                             : en:Chapter 07
00:46:39.380                             : en:Chapter 08
00:53:35.629                             : en:Chapter 09
01:02:28.495                             : en:Chapter 10
01:08:59.344                             : en:Chapter 11
01:12:42.525                             : en:Chapter 12
01:19:15.918                             : en:Chapter 13
01:26:49.996                             : en:Chapter 14
01:31:07.379                             : en:Chapter 15
01:38:31.531                             : en:Chapter 16
01:44:11.245                             : en:Chapter 17
CONTRASEÑA




DESCARGAR

Todos los links son Intercambiables




Enlaces de Mega y Google Drive solo disponibles para Miembros VIP

Compra tu Membresía VIP y apoya a Club-HD!

ATENCIÓN! Tenemos TODO el material de Club-HD disponible por Mega y Google Drive, enlaces 100% activos y online hasta la fecha

Llévate tus cuentas Mega PRO II gratis con tu membresía VIP!
Todos los posts vivos con links de Mega y Google Drive.
Todo el material de Club-HD desbloqueado y sin publicidad.

Click Aquí para más información.



Enlaces de Mega y Google Drive solo disponibles para Miembros VIP

Compra tu Membresía VIP y apoya a Club-HD!

ATENCIÓN! Tenemos TODO el material de Club-HD disponible por Mega y Google Drive, enlaces 100% activos y online hasta la fecha

Llévate tus cuentas Mega PRO II gratis con tu membresía VIP!
Todos los posts vivos con links de Mega y Google Drive.
Todo el material de Club-HD desbloqueado y sin publicidad.

Click Aquí para más información.



Para ver este contenido oculto, debes dar click en una de las siguientes reacciones: Like Like, Love Love, Haha Haha, Wow Wow, Sad Sad, Angry Angry



Para ver este contenido oculto, debes dar click en una de las siguientes reacciones: Like Like, Love Love, Haha Haha, Wow Wow, Sad Sad, Angry Angry



Para ver este contenido oculto, debes dar click en una de las siguientes reacciones: Like Like, Love Love, Haha Haha, Wow Wow, Sad Sad, Angry Angry
 
Última edición:

galiel38

Active member
Registrado
28 Sep 2012
Mensajes
655
Puntos de reacción
73
Puntos
28
Edad
32
Muchas gracias por la película.
 

opv_2011

Active member
Registrado
3 Feb 2016
Mensajes
721
Puntos de reacción
41
Puntos
28
Edad
46



SINOPSIS

Ray Garrison (Vin Diesel), también conocido como Bloodshot, es resucitado por la compañía Rising Spirit Technologies a través del uso de nanotecnología. Mientras lucha por recuperar la memoria, Ray trata de volver al ser el que era antes de sufrir el accidente que le dejó amnésico... Película basada en el cómic "Valiant".

MÁS INFORMACIÓN




TRAILER



CAPTURAS











MEDIAINFO

Código:
General
Unique ID                                : 24358261528983456526384262862813915264 (0x12533B03D46F6250C01A460321DDE880)
Format                                   : Matroska
Format version                           : Version 4
File size                                : 13.3 GiB
Duration                                 : 1 h 49 min
Overall bit rate mode                    : Variable
Overall bit rate                         : 17.4 Mb/s
Encoded date                             : UTC 2020-04-25 23:00:30
Writing application                      : mkvmerge v32.0.0 ('Astral Progressions') 64-bit
Writing library                          : libebml v1.3.7 + libmatroska v1.5.0

Video
ID                                       : 1
Format                                   : AVC
Format/Info                              : Advanced Video Codec
Format profile                           : High@L4.1
Format settings                          : CABAC / 5 Ref Frames
Format settings, CABAC                   : Yes
Format settings, Reference frames        : 5 frames
Codec ID                                 : V_MPEG4/ISO/AVC
Duration                                 : 1 h 49 min
Bit rate                                 : 14.5 Mb/s
Width                                    : 1 920 pixels
Height                                   : 804 pixels
Display aspect ratio                     : 2.40:1
Frame rate mode                          : Constant
Frame rate                               : 23.976 (24000/1001) FPS
Color space                              : YUV
Chroma subsampling                       : 4:2:0
Bit depth                                : 8 bits
Scan type                                : Progressive
Bits/(Pixel*Frame)                       : 0.392
Stream size                              : 11.1 GiB (83%)
Writing library                          : x264 core 160 r3000 33f9e14
Encoding settings                        : cabac=1 / ref=5 / deblock=1:-3:-3 / analyse=0x3:0x133 / me=umh / subme=10 / psy=1 / psy_rd=1.00:0.00 / mixed_ref=1 / me_range=32 / chroma_me=1 / trellis=2 / 8x8dct=1 / cqm=0 / deadzone=21,11 / fast_pskip=0 / chroma_qp_offset=-2 / threads=12 / lookahead_threads=2 / sliced_threads=0 / nr=0 / decimate=0 / interlaced=0 / bluray_compat=0 / constrained_intra=0 / bframes=8 / b_pyramid=2 / b_adapt=2 / b_bias=0 / direct=3 / weightb=1 / open_gop=0 / weightp=2 / keyint=250 / keyint_min=23 / scenecut=40 / intra_refresh=0 / rc=crf / mbtree=0 / crf=16.7 / qcomp=0.60 / qpmin=0 / qpmax=69 / qpstep=4 / ip_ratio=1.40 / pb_ratio=1.30 / aq=3:0.80
Language                                 : English
Default                                  : Yes
Forced                                   : No

Audio #1
ID                                       : 2
Format                                   : AC-3
Format/Info                              : Audio Coding 3
Commercial name                          : Dolby Digital
Codec ID                                 : A_AC3
Duration                                 : 1 h 49 min
Bit rate mode                            : Constant
Bit rate                                 : 640 kb/s
Channel(s)                               : 6 channels
Channel layout                           : L R C LFE Ls Rs
Sampling rate                            : 48.0 kHz
Frame rate                               : 31.250 FPS (1536 SPF)
Compression mode                         : Lossy
Stream size                              : 500 MiB (4%)
Title                                    : Latino
Language                                 : Spanish
Service kind                             : Complete Main
Default                                  : Yes
Forced                                   : Yes

Audio #2
ID                                       : 3
Format                                   : DTS XLL
Format/Info                              : Digital Theater Systems
Commercial name                          : DTS-HD Master Audio
Codec ID                                 : A_DTS
Duration                                 : 1 h 49 min
Bit rate mode                            : Variable
Bit rate                                 : 2 258 kb/s
Channel(s)                               : 6 channels
Channel layout                           : C L R Ls Rs LFE
Sampling rate                            : 48.0 kHz
Frame rate                               : 93.750 FPS (512 SPF)
Bit depth                                : 16 bits
Compression mode                         : Lossless
Stream size                              : 1.72 GiB (13%)
Title                                    : English
Language                                 : English
Default                                  : No
Forced                                   : No

Text #1
ID                                       : 4
Format                                   : UTF-8
Codec ID                                 : S_TEXT/UTF8
Codec ID/Info                            : UTF-8 Plain Text
Duration                                 : 1 h 44 min
Bit rate                                 : 50 b/s
Count of elements                        : 1171
Stream size                              : 38.8 KiB (0%)
Title                                    : Completos
Language                                 : Spanish
Default                                  : No
Forced                                   : No

Text #2
ID                                       : 5
Format                                   : PGS
Muxing mode                              : zlib
Codec ID                                 : S_HDMV/PGS
Codec ID/Info                            : Picture based subtitle format used on BDs/HD-DVDs
Duration                                 : 1 h 48 min
Bit rate                                 : 25.7 kb/s
Count of elements                        : 2204
Stream size                              : 19.9 MiB (0%)
Language                                 : Spanish
Default                                  : No
Forced                                   : No

Menu
00:00:00.000                             : en:Chapter 01
00:07:06.384                             : en:Chapter 02
00:13:56.210                             : en:Chapter 03
00:20:36.861                             : en:Chapter 04
00:25:05.546                             : en:Chapter 05
00:32:11.179                             : en:Chapter 06
00:41:41.499                             : en:Chapter 07
00:46:39.380                             : en:Chapter 08
00:53:35.629                             : en:Chapter 09
01:02:28.495                             : en:Chapter 10
01:08:59.344                             : en:Chapter 11
01:12:42.525                             : en:Chapter 12
01:19:15.918                             : en:Chapter 13
01:26:49.996                             : en:Chapter 14
01:31:07.379                             : en:Chapter 15
01:38:31.531                             : en:Chapter 16
01:44:11.245                             : en:Chapter 17
CONTRASEÑA




DESCARGAR

Todos los links son Intercambiables




[Hidden content]




[Hidden content]




[Hidden content]




[Hidden content]




[Hidden content]
Gracias por la película!
 

cripp

Well-known member
Registrado
27 Ago 2012
Mensajes
7,925
Puntos de reacción
449
Puntos
113
Gracias por compartir
 

phillip64

Active member
Registrado
29 Ago 2012
Mensajes
676
Puntos de reacción
89
Puntos
28
Muchas gracias por compartir en 180p amigos ;)
 

El14mago

Active member
Miembro VIP
Registrado
10 Sep 2014
Mensajes
998
Puntos de reacción
34
Puntos
28
Edad
51
Gracias por el aporte.-
 

Usuarios Que Están Viendo Este Tema (Total: 1, Miembros: 0, Invitados: 1)

Arriba