Blue Is the Warmest Color (2013) 720p BDRip Audio Francés [Subt. Esp] (Romance. Drama)

Maestro Revolver

Administrador
Registro
9 Ago 2012
Mensajes
3.157
Reacciones (ptje)
54.925


Blue-Is-the-Warmest-Color.jpg





FichaTecnica.jpg


TÍTULO ORIGINAL: La vie d'Adèle - Chapitre 1 & 2 (Blue Is the Warmest Color)
AÑO: 2013
DURACIÓN: 180 min.
PAÍS: Francia
DIRECTOR: Abdellatif Kechiche
GUIÓN: Abdellatif Kechiche, Ghalya Lacroix (Novela gráfica: Julie Maroh)
REPARTO: Adèle Exarchopoulos, Léa Seydoux, Salim Kechiouche, Mona Walravens, Jeremie Laheurte, Alma Jodorowsky, Aurélien Recoing, Catherine Salée, Fanny Maurin, Benjamin Siksou, Sandor Funtek, Karim Saidi
PRODUCTORA: Wild Bunch / Quat'sous Films / France 2 Cinema / Scope Pictures / Vértigo Films / RTBF / Canal + / CNC
GÉNERO: Romance. Drama | Drama romántico. Adolescencia. Erótico. Homosexualidad. Cómic
imdb-logo.png
: http://www.imdb.com/title/tt2278871/


PREMIOS: 2013: Festival de Cannes: Palma de Oro (Mejor película) y Premio FIPRESCI
2013: Premios César: 8 nominaciones, incluyendo Mejor película
2013: Globos de Oro: Nominada a mejor película extranjera
2013: Critics Choice: Mejor film de habla no inglesa y mejor intérprete joven
2013: Premios BAFTA: Nominada a Mejor película de habla no inglesa
2013: Círculo de Críticos de Nueva York: Mejor película extranjera
2013: National Board of Review (NBR): Mejor actriz revelación
2013: Premios del Cine Europeo: Nominada a Mejor película y mejor director
2013: Independent Spirit Awards: Nominada a Mejor película extranjera
2013: Satellite Awards: 3 nominaciones, incluyendo mejor film extranjero
2013: Premios Guldbagge: Mejor película extranjera
2013: Premios Goya: Nominada a Mejor película europea





Sinopsis.jpg


Adèle (Adèle Exarchopoulos) tiene quince años y sabe que lo normal es salir con chicos, pero tiene dudas sobre su sexualidad. Una noche conoce y se enamora inesperadamente de Emma (Léa Seydoux), una joven con el pelo azul. La atracción que despierta en ella una mujer que le muestra el camino del deseo y la madurez, hará que Adèle tenga que sufrir los juicios y prejuicios de familiares y amigos. Adaptación de la novela gráfica "Blue", de Julie Maroh.




Trailer.jpg






Capturas.jpg


1.jpg


2.jpg


3.jpg


4.jpg


5.jpg


6.jpg


La pelicula NO tiene ninguna marca... solo colocamos el nombre de esta web en las capturas




MediaInfo.jpg


Código:
General
Format                                   : Matroska
Format version                           : Version 2
File size                                : 3.63 GiB
Duration                                 : 3h 0mn
Overall bit rate                         : 2 885 Kbps
Movie name                               : www.club-hd.com
Encoded date                             : UTC 2014-02-22 02:24:53
Writing application                      : mkvmerge v5.7.0 ('The Whirlwind') built on Jul  8 2012 20:08:51
Writing library                          : libebml v1.2.3 + libmatroska v1.3.0

Video
ID                                       : 1
Format                                   : AVC
Format/Info                              : Advanced Video Codec
Format profile                           : [email protected]
Format settings, CABAC                   : Yes
Format settings, ReFrames                : 6 frames
Muxing mode                              : Header stripping
Codec ID                                 : V_MPEG4/ISO/AVC
Duration                                 : 3h 0mn
Bit rate                                 : 2 380 Kbps
Width                                    : 1 280 pixels
Height                                   : 536 pixels
Display aspect ratio                     : 2.40:1
Frame rate mode                          : Constant
Frame rate                               : 23.976 fps
Color space                              : YUV
Chroma subsampling                       : 4:2:0
Bit depth                                : 8 bits
Scan type                                : Progressive
Bits/(Pixel*Frame)                       : 0.145
Stream size                              : 2.99 GiB (82%)
Title                                    : www.club-hd.com
Writing library                          : x264 core 138 r2358 9e941d1
Language                                 : French
Default                                  : Yes
Forced                                   : No
Color primaries                          : BT.709
Transfer characteristics                 : BT.709
Matrix coefficients                      : BT.709

Audio
ID                                       : 2
Format                                   : AC-3
Format/Info                              : Audio Coding 3
Mode extension                           : CM (complete main)
Format settings, Endianness              : Big
Muxing mode                              : Header stripping
Codec ID                                 : A_AC3
Duration                                 : 3h 0mn
Bit rate mode                            : Constant
Bit rate                                 : 448 Kbps
Channel(s)                               : 6 channels
Channel positions                        : Front: L C R, Side: L R, LFE
Sampling rate                            : 48.0 KHz
Bit depth                                : 16 bits
Compression mode                         : Lossy
Stream size                              : 577 MiB (16%)
Title                                    : www.club-hd.com
Language                                 : French
Default                                  : Yes
Forced                                   : No

Text
ID                                       : 3
Format                                   : UTF-8
Codec ID                                 : S_TEXT/UTF8
Codec ID/Info                            : UTF-8 Plain Text
Title                                    : www.club-hd.com
Language                                 : Spanish
Default                                  : Yes
Forced                                   : No

Menu
00:00:00.000                             : en:00:00:00.000
00:08:04.234                             : en:00:08:04.234
00:11:50.585                             : en:00:11:50.585
00:19:26.665                             : en:00:19:26.665
00:28:52.981                             : en:00:28:52.981
00:36:42.909                             : en:00:36:42.909
00:43:00.578                             : en:00:43:00.578
00:53:38.048                             : en:00:53:38.048
01:02:22.656                             : en:01:02:22.656
01:08:34.736                             : en:01:08:34.736
01:14:54.198                             : en:01:14:54.198
01:21:46.652                             : en:01:21:46.652
01:25:02.597                             : en:01:25:02.597
01:31:55.343                             : en:01:31:55.343
01:34:52.270                             : en:01:34:52.270
01:41:49.353                             : en:01:41:49.353
01:44:57.166                             : en:01:44:57.166
02:03:49.797                             : en:02:03:49.797
02:10:48.924                             : en:02:10:48.924
02:13:57.196                             : en:02:13:57.196
02:21:30.691                             : en:02:21:30.691
02:31:42.719                             : en:02:31:42.719
02:46:30.314                             : en:02:46:30.314




Descarga.jpg



MEGA.jpg

Tenemos TODO el material de Club-HD disponible por Mega, enlaces 100% activos y online hasta la fecha

Llévate tus cuentas Mega PRO III gratis con tu membresía VIP!
Todos los posts vivos con links de Mega.
Todo el material de Club-HD desbloqueado y sin publicidad.

Obtén más información sobre nuestras Membresías VIP



UPLOADED_BANNER.png

Para ver este contenido oculto, debes dar click en el botón"Like", o cualquiera de las otras reacciones:

Me Gusta Me Gusta, Me Encanta Me Encanta, Jaja Jaja, Wow Wow, Triste Triste, Molesto Molesto
 
Última edición por un moderador:
Volver