Blue Jasmine (2013) 720p BDRip Audio Inglés [Subt. Esp] (Drama. Comedia)

Maestro Revolver

Administrador
Registro
9 Ago 2012
Mensajes
3.157
Reacciones (ptje)
54.926


Blue-Jasmine.jpg




FichaTecnica.jpg


TÍTULO ORIGINAL: Blue Jasmine
AÑO: 2013
DURACIÓN: 98 min.
PAÍS: USA
DIRECTOR: Woody Allen
GUIÓN: Woody Allen
REPARTO: Cate Blanchett, Alec Baldwin, Sally Hawkins, Bobby Cannavale, Peter Sarsgaard, Louis C.K., Michael Stuhlbarg, Andrew Dice Clay, Max Casella, Tammy Blanchard, Alden Ehrenreich
PRODUCTORA: Sony Pictures / Gravier Productions / Perdido Productions
GÉNERO: Drama. Comedia | Comedia dramática
imdb-logo.png
: http://www.imdb.com/title/tt2334873/

Premios: 2013: Globos de Oro: 2 nominaciones: Mejor actriz y actriz secundaria
2013: Premios BAFTA: 3 nominaciones, incluyendo Mejor guión original
2013: Círculo de Críticos de Nueva York: Mejor actriz (Blanchett)
2013: Premios Gotham: Nominada a Mejor actriz (Cate Blanchett)
2013: Independent Spirit Awards: 3 nominaciones, incluyendo mejor actriz (Blanchett)
2013: Satellite Awards: 5 nominaciones, incluyendo mejor película y director




Sinopsis.jpg


Jasmine, una mujer rica y glamourosa de la alta sociedad neoyorquina, se encuentra de repente sin dinero y sin casa. Decide entonces mudarse a San Francisco a vivir con su hermana Ginger, una mujer de clase trabajadora que vive con su novio en un pequeño apartamento. Jasmine, que atraviesa el momento más crítico de su vida, se dedica a tomar antidepresivos y a recordar su antigua vida en Manhattan.




Trailer.jpg






Capturas.jpg


1.jpg


2.jpg


3.jpg


4.jpg


5.jpg


6.jpg


La pelicula NO tiene ninguna marca... solo colocamos el nombre de esta web en las capturas




MediaInfo.jpg


Código:
General
Format                                   : Matroska
Format version                           : Version 2
File size                                : 3.63 GiB
Duration                                 : 1h 38mn
Overall bit rate                         : 5 287 Kbps
Movie name                               : www.club-hd.com
Encoded date                             : UTC 2014-01-10 15:54:33
Writing application                      : mkvmerge v5.7.0 ('The Whirlwind') built on Jul  8 2012 20:08:51
Writing library                          : libebml v1.2.3 + libmatroska v1.3.0

Video
ID                                       : 1
Format                                   : AVC
Format/Info                              : Advanced Video Codec
Format profile                           : [email protected]
Format settings, CABAC                   : Yes
Format settings, ReFrames                : 5 frames
Muxing mode                              : Header stripping
Codec ID                                 : V_MPEG4/ISO/AVC
Duration                                 : 1h 38mn
Bit rate                                 : 4 840 Kbps
Width                                    : 1 280 pixels
Height                                   : 536 pixels
Display aspect ratio                     : 2.40:1
Frame rate mode                          : Constant
Frame rate                               : 23.976 fps
Color space                              : YUV
Chroma subsampling                       : 4:2:0
Bit depth                                : 8 bits
Scan type                                : Progressive
Bits/(Pixel*Frame)                       : 0.294
Stream size                              : 3.25 GiB (90%)
Title                                    : www.club-hd.com
Writing library                          : x264 core 140 r2377 1ca7bb9
Language                                 : English
Default                                  : Yes
Forced                                   : No

Audio
ID                                       : 2
Format                                   : AC-3
Format/Info                              : Audio Coding 3
Mode extension                           : CM (complete main)
Format settings, Endianness              : Big
Muxing mode                              : Header stripping
Codec ID                                 : A_AC3
Duration                                 : 1h 38mn
Bit rate mode                            : Constant
Bit rate                                 : 448 Kbps
Channel(s)                               : 6 channels
Channel positions                        : Front: L C R, Side: L R, LFE
Sampling rate                            : 48.0 KHz
Bit depth                                : 16 bits
Compression mode                         : Lossy
Stream size                              : 315 MiB (8%)
Title                                    : www.club-hd.com
Language                                 : English
Default                                  : Yes
Forced                                   : No

Text
ID                                       : 3
Format                                   : UTF-8
Codec ID                                 : S_TEXT/UTF8
Codec ID/Info                            : UTF-8 Plain Text
Title                                    : www.club-hd.com
Language                                 : Spanish
Default                                  : Yes
Forced                                   : No

Menu
00:00:00.000                             : en:00:00:00.000
00:07:01.254                             : en:00:07:01.254
00:12:36.089                             : en:00:12:36.089
00:18:37.992                             : en:00:18:37.992
00:24:34.765                             : en:00:24:34.765
00:30:16.231                             : en:00:30:16.231
00:37:10.728                             : en:00:37:10.728
00:41:18.017                             : en:00:41:18.017
00:47:07.616                             : en:00:47:07.616
00:53:33.419                             : en:00:53:33.419
01:00:09.147                             : en:01:00:09.147
01:05:10.406                             : en:01:05:10.406
01:12:00.691                             : en:01:12:00.691
01:17:59.174                             : en:01:17:59.174
01:23:24.791                             : en:01:23:24.791
01:29:52.137                             : en:01:29:52.137




Descarga.jpg



MEGA.jpg

Tenemos TODO el material de Club-HD disponible por Mega, enlaces 100% activos y online hasta la fecha

Llévate tus cuentas Mega PRO III gratis con tu membresía VIP!
Todos los posts vivos con links de Mega.
Todo el material de Club-HD desbloqueado y sin publicidad.

Obtén más información sobre nuestras Membresías VIP



UPLOADED_BANNER.png

Para ver este contenido oculto, debes dar click en el botón"Like", o cualquiera de las otras reacciones:

Me Gusta Me Gusta, Me Encanta Me Encanta, Jaja Jaja, Wow Wow, Triste Triste, Molesto Molesto

 
Última edición por un moderador:
tengo una amigo que siempre que me recomienda una película es porque es buena y me había hablado de esta gracias bestia
 
Muy buen estreno :dplgar: La esperaré en dual :D Gracias Revolver :aplausos: Saludos bye
 
Volver