Bon Jovi: Live At Madison Square Garden (2008) 720p BDRip [TrueHD 5.1] + [AC3 5.1] (Concierto)

Max

Admin
Administrador
8 Ago 2012
6.085
26.707

Bon Jovi: Live At Madison Square Garden (2008) 720p BDRip [TrueHD 5.1] + [AC3 5.1] (Concierto)





Bon Jovi: Live At Madison Square Garden (2008) 720p BDRip [TrueHD 5.1] + [AC3 5.1] (Concierto)


"Live at Madison Square Garden" ha sido casi un año retrasado el lanzamiento del álbum en directo hasta que por fin lo tenemos a la venta. Los concierto del Madison Square Garden tuvieron lugar el 14 y 15 de Julio del pasado 2008, como colofón a lo que fue la gira de ‘Lost Highway’. Al poco de acabar el tour se confirmó que los conciertos se editarían en un álbum en vivo, pero la fecha se fue retrasando cada vez más. Al final, cosas de las discográficas, la puesta en circulación de este ‘Live At The Madison Square Garden’ ha coincidido casi en el tiempo con la edición del nuevo disco de la banda ‘The Circle’.
Bon Jovi ya habían editado dos álbumes en vivo grabados en Europa y ya era hora de que le llegara el turno a su país. El escenario elegido no podía ser otro que New York y el recinto uno de los más emblemáticos de la ciudad, el pabellón del Madison Square Garden. Muchos grandes nombres han grabado allí sus shows en vivo; Elton John, Jetrho Tull, Eric Clapton o el mismo Bruce Springsteen.
Contiene 20 temas más 3 extras mezclados de las dos noches de los conciertos. Un repertorio que incluye, además de los típicos hits que no podían faltar, algunas salidas de los temas clásicos de la banda en directo como ‘Dry County’, ‘Living In Sin’ o la versión ‘Hallelujah’ de Leonard Cohen. El video ha sido dirigido por el hermano de Jon, Anthony M. Bon Jovi, quien contó para la a grabación del show con un conjunto de 23 cámaras de alta definición.




Bon Jovi: Live At Madison Square Garden (2008) 720p BDRip [TrueHD 5.1] + [AC3 5.1] (Concierto)


01. Lost Highway
02. Born To Be My Baby
03. Blaze Of Glory
04. It's My Life
05. Keep The Faith
06. Raise Your Hands
07. Living In Sin/Chapel Of Love
08. Always
09. Whole Lot Of Lovin'
10. In These Arms
11. We Got It Going On
12. I'll Be There For You
13. (You Want To) Make A Memory
14. Blood On Blood
15. Dry County
16. Have A Nice Day
17. Who Says You Can't Go Home
18. Hallelujah
19. Wanted Dead Or Alive
20. Livin' On A Prayer
21. Bad Medicine



Extras (Temas Extras)

22. You Give Love A Bad Name
23. Runaway
24. Bed Of Roses




Bon Jovi: Live At Madison Square Garden (2008) 720p BDRip [TrueHD 5.1] + [AC3 5.1] (Concierto)






Bon Jovi: Live At Madison Square Garden (2008) 720p BDRip [TrueHD 5.1] + [AC3 5.1] (Concierto)


Bon Jovi: Live At Madison Square Garden (2008) 720p BDRip [TrueHD 5.1] + [AC3 5.1] (Concierto)


Bon Jovi: Live At Madison Square Garden (2008) 720p BDRip [TrueHD 5.1] + [AC3 5.1] (Concierto)


Bon Jovi: Live At Madison Square Garden (2008) 720p BDRip [TrueHD 5.1] + [AC3 5.1] (Concierto)


Bon Jovi: Live At Madison Square Garden (2008) 720p BDRip [TrueHD 5.1] + [AC3 5.1] (Concierto)


Bon Jovi: Live At Madison Square Garden (2008) 720p BDRip [TrueHD 5.1] + [AC3 5.1] (Concierto)


Bon Jovi: Live At Madison Square Garden (2008) 720p BDRip [TrueHD 5.1] + [AC3 5.1] (Concierto)





Bon Jovi: Live At Madison Square Garden (2008) 720p BDRip [TrueHD 5.1] + [AC3 5.1] (Concierto)


Código:
General
Complete name                            : Bon Jovi - Live At Madison Square Garden (2008) 720p BDRip [TrueHD 5.1] + [AC3 5.1].mkv
Format                                   : Matroska
Format version                           : Version 2
File size                                : 7.08 GiB
Duration                                 : 2h 5mn
Overall bit rate mode                    : Variable
Overall bit rate                         : 8 067 Kbps
Movie name                               : www.club-hd.com --> Bon Jovi - Live At Madison Square Garden (2008) 720p BDRip [TrueHD 5.1] + [AC3 5.1]
Encoded date                             : UTC 2013-08-03 02:12:59
Writing application                      : mkvmerge v5.8.0 ('No Sleep / Pillow') built on Sep  2 2012 15:37:04
Writing library                          : libebml v1.2.3 + libmatroska v1.3.0

Video
ID                                       : 1
Format                                   : AVC
Format/Info                              : Advanced Video Codec
Format profile                           : [email protected]
Format settings, CABAC                   : Yes
Format settings, ReFrames                : 4 frames
Muxing mode                              : Header stripping
Codec ID                                 : V_MPEG4/ISO/AVC
Duration                                 : 2h 5mn
Nominal bit rate                         : 2 999 Kbps
Width                                    : 1 280 pixels
Height                                   : 720 pixels
Display aspect ratio                     : 16:9
Frame rate mode                          : Constant
Frame rate                               : 23.976 fps
Color space                              : YUV
Chroma subsampling                       : 4:2:0
Bit depth                                : 8 bits
Scan type                                : Progressive
Bits/(Pixel*Frame)                       : 0.136
Title                                    : Bon Jovi - Live At Madison Square Garden (2008) 720p BDRip [TrueHD 5.1] + [AC3 5.1]
Writing library                          : x264 core 128 r2216 198a7ea
Encoding settings                        : cabac=1 / ref=3 / deblock=1:-1:-1 / analyse=0x3:0x133 / me=hex / subme=5 / psy=1 / psy_rd=1.00:0.00 / mixed_ref=1 / me_range=16 / chroma_me=1 / trellis=1 / 8x8dct=1 / cqm=0 / deadzone=21,11 / fast_pskip=1 / chroma_qp_offset=0 / threads=6 / lookahead_threads=1 / sliced_threads=0 / nr=0 / decimate=1 / interlaced=0 / bluray_compat=0 / constrained_intra=0 / bframes=16 / b_pyramid=2 / b_adapt=1 / b_bias=0 / direct=3 / weightb=1 / open_gop=0 / weightp=2 / keyint=240 / keyint_min=23 / scenecut=40 / intra_refresh=0 / rc_lookahead=40 / rc=2pass / mbtree=1 / bitrate=2999 / ratetol=1.0 / qcomp=0.60 / qpmin=10 / qpmax=51 / qpstep=4 / cplxblur=20.0 / qblur=0.5 / ip_ratio=1.40 / aq=1:1.00
Language                                 : English
Default                                  : Yes
Forced                                   : No

Audio #1
ID                                       : 2
Format                                   : TrueHD
Codec ID                                 : A_TRUEHD
Duration                                 : 2h 5mn
Bit rate mode                            : Variable
Maximum bit rate                         : 5 148 Kbps
Channel(s)                               : 6 channels
Channel positions                        : Front: L C R, Side: L R, LFE
Sampling rate                            : 48.0 KHz
Compression mode                         : Lossless
Title                                    : Bon Jovi - Live At Madison Square Garden (2008) - TrueHD 5.1
Language                                 : English
Default                                  : Yes
Forced                                   : No

Audio #2
ID                                       : 3
Format                                   : AC-3
Format/Info                              : Audio Coding 3
Mode extension                           : CM (complete main)
Format settings, Endianness              : Big
Muxing mode                              : Header stripping
Codec ID                                 : A_AC3
Duration                                 : 2h 5mn
Bit rate mode                            : Constant
Bit rate                                 : 640 Kbps
Channel(s)                               : 6 channels
Channel positions                        : Front: L C R, Side: L R, LFE
Sampling rate                            : 48.0 KHz
Bit depth                                : 16 bits
Compression mode                         : Lossy
Stream size                              : 575 MiB (8%)
Title                                    : Bon Jovi - Live At Madison Square Garden (2008) - AC3 5.1
Language                                 : English
Default                                  : No
Forced                                   : No

Menu
00:00:00.000                             : :Lost Highway
00:04:19.000                             : :Born To Be My Baby
00:09:37.000                             : :Blaze Of Glory
00:15:14.000                             : :It's My Life
00:19:21.000                             : :Keep The Faith
00:25:42.000                             : :Raise Your Hands
00:30:35.000                             : :Living In Sin/Chapel Of Love
00:36:31.000                             : :Always
00:43:53.000                             : :Whole Lot Of Leavin'
00:48:58.000                             : :In These Arms
00:54:58.000                             : :We Got It Going On
00:59:37.000                             : :I'll Be There For You
01:09:02.000                             : :(You Want To) Make A Memory
01:13:44.000                             : :Blood On Blood
01:19:48.000                             : :Dry County
01:29:44.000                             : :Have A Nice Day
01:33:45.000                             : :Who Says You Can't Go Home
01:40:07.000                             : :Hallelujah
01:49:13.000                             : :Wanted Dead Or Alive
01:54:37.000                             : :Livin' On A Prayer
02:02:00.000                             : :Bad Medicine




Bon Jovi: Live At Madison Square Garden (2008) 720p BDRip [TrueHD 5.1] + [AC3 5.1] (Concierto)



Bon Jovi: Live At Madison Square Garden (2008) 720p BDRip [TrueHD 5.1] + [AC3 5.1] (Concierto)

Enlaces de Mega solo disponibles para Miembros VIP

Compra tu Membresía VIP y apoya a Club-HD!

ATENCIÓN! Tenemos TODO el material de Club-HD disponible por Mega, enlaces 100% activos y online hasta la fecha

Llévate tus cuentas Mega PRO III gratis con tu membresía VIP!
Todos los posts vivos con links de Mega.
Todo el material de Club-HD desbloqueado y sin publicidad.

Click Aquí para más información.

Bon Jovi: Live At Madison Square Garden (2008) 720p BDRip [TrueHD 5.1] + [AC3 5.1] (Concierto)

Para ver este contenido oculto, debes dar click en el botón "Like", o cualquiera de las otras reacciones:

Me Gusta Me Gusta, Me Encanta Me Encanta, Jaja Jaja, Wow Wow, Triste Triste, Molesto Molesto






Extras (Temas Extras)

22. You Give Love A Bad Name
23. Runaway
24. Bed Of Roses




Código:
General
Complete name                            : Bon Jovi - Live At Madison Square Garden (2008) 720p BDRip [TrueHD 5.1] + [AC3 2.0] - Extras.mkv
Format                                   : Matroska
Format version                           : Version 2
File size                                : 1.31 GiB
Duration                                 : 17mn 35s
Overall bit rate mode                    : Variable
Overall bit rate                         : 10.7 Mbps
Movie name                               : www.club-hd.com --> Bon Jovi - Live At Madison Square Garden (2008) 720p BDRip [TrueHD 5.1] + [AC3 2.0] - Extras
Encoded date                             : UTC 2013-08-03 03:27:26
Writing application                      : mkvmerge v5.8.0 ('No Sleep / Pillow') built on Sep  2 2012 15:37:04
Writing library                          : libebml v1.2.3 + libmatroska v1.3.0

Video
ID                                       : 1
Format                                   : AVC
Format/Info                              : Advanced Video Codec
Format profile                           : [email protected]
Format settings, CABAC                   : Yes
Format settings, ReFrames                : 8 frames
Muxing mode                              : Header stripping
Codec ID                                 : V_MPEG4/ISO/AVC
Duration                                 : 17mn 35s
Nominal bit rate                         : 5 000 Kbps
Width                                    : 1 280 pixels
Height                                   : 720 pixels
Display aspect ratio                     : 16:9
Frame rate mode                          : Constant
Frame rate                               : 23.976 fps
Color space                              : YUV
Chroma subsampling                       : 4:2:0
Bit depth                                : 8 bits
Scan type                                : Progressive
Bits/(Pixel*Frame)                       : 0.226
Title                                    : Bon Jovi - Live At Madison Square Garden (2008) 720p BDRip [TrueHD 5.1] + [AC3 2.0] - Extras
Writing library                          : x264 core 120
Encoding settings                        : cabac=1 / ref=9 / deblock=1:-2:-2 / analyse=0x3:0x133 / me=umh / subme=10 / psy=1 / psy_rd=1.00:0.00 / mixed_ref=1 / me_range=24 / chroma_me=1 / trellis=2 / 8x8dct=1 / cqm=0 / deadzone=21,11 / fast_pskip=1 / chroma_qp_offset=-2 / threads=24 / sliced_threads=0 / nr=0 / decimate=1 / interlaced=0 / bluray_compat=0 / constrained_intra=0 / bframes=3 / b_pyramid=1 / b_adapt=1 / b_bias=0 / direct=1 / weightb=1 / open_gop=0 / weightp=2 / keyint=240 / keyint_min=24 / scenecut=40 / intra_refresh=0 / rc_lookahead=50 / rc=2pass / mbtree=1 / bitrate=5000 / ratetol=1.0 / qcomp=0.60 / qpmin=3 / qpmax=69 / qpstep=4 / cplxblur=20.0 / qblur=0.5 / ip_ratio=1.40 / aq=1:1.00
Language                                 : English
Default                                  : Yes
Forced                                   : No
Color primaries                          : BT.709
Transfer characteristics                 : BT.709
Matrix coefficients                      : BT.709

Audio #1
ID                                       : 2
Format                                   : TrueHD
Codec ID                                 : A_TRUEHD
Duration                                 : 17mn 35s
Bit rate mode                            : Variable
Maximum bit rate                         : 6 396 Kbps
Channel(s)                               : 6 channels
Channel positions                        : Front: L C R, Side: L R, LFE
Sampling rate                            : 48.0 KHz
Compression mode                         : Lossless
Title                                    : Bon Jovi - Live At Madison Square Garden (2008) - TrueHD 5.1
Language                                 : English
Default                                  : Yes
Forced                                   : No

Audio #2
ID                                       : 3
Format                                   : AC-3
Format/Info                              : Audio Coding 3
Mode extension                           : CM (complete main)
Format settings, Endianness              : Big
Muxing mode                              : Header stripping
Codec ID                                 : A_AC3
Duration                                 : 17mn 35s
Bit rate mode                            : Constant
Bit rate                                 : 448 Kbps
Channel(s)                               : 2 channels
Channel positions                        : Front: L R
Sampling rate                            : 48.0 KHz
Bit depth                                : 16 bits
Compression mode                         : Lossy
Stream size                              : 56.4 MiB (4%)
Title                                    : Bon Jovi - Live At Madison Square Garden (2008) - AC3 2.0
Language                                 : English
Default                                  : No
Forced                                   : No

Menu
00:00:00.000                             : :You Give Love A Bad Name
00:04:06.000                             : :Runaway
00:09:19.000                             : :Bed Of Roses




Bon Jovi: Live At Madison Square Garden (2008) 720p BDRip [TrueHD 5.1] + [AC3 5.1] (Concierto)



Bon Jovi: Live At Madison Square Garden (2008) 720p BDRip [TrueHD 5.1] + [AC3 5.1] (Concierto)

Enlaces de Mega solo disponibles para Miembros VIP

Compra tu Membresía VIP y apoya a Club-HD!

ATENCIÓN! Tenemos TODO el material de Club-HD disponible por Mega, enlaces 100% activos y online hasta la fecha

Llévate tus cuentas Mega PRO III gratis con tu membresía VIP!
Todos los posts vivos con links de Mega.
Todo el material de Club-HD desbloqueado y sin publicidad.

Click Aquí para más información.

Bon Jovi: Live At Madison Square Garden (2008) 720p BDRip [TrueHD 5.1] + [AC3 5.1] (Concierto)

Para ver este contenido oculto, debes dar click en el botón "Like", o cualquiera de las otras reacciones:

Me Gusta Me Gusta, Me Encanta Me Encanta, Jaja Jaja, Wow Wow, Triste Triste, Molesto Molesto

 
Última edición:
28 Ago 2012
367
127
Re: Bon Jovi - Live At Madison Square Garden (2008) 720p BDRip [TrueHD 5.1] + [AC3 5.1] (Concierto)

Bon Jovi!!!!! :D :D :D :D Gracias :dplgar:

Desc_g_
 
28 Ago 2012
1.175
11
Re: Bon Jovi - Live At Madison Square Garden (2008) 720p BDRip [TrueHD 5.1] + [AC3 5.1] (Concierto)

Gracias!
 

vhrod

Miembro VIP
27 Ago 2012
1.171
46
Re: Bon Jovi - Live At Madison Square Garden (2008) 720p BDRip [TrueHD 5.1] + [AC3 5.1] (Concierto)

Desc_g_
 
28 Ago 2012
428
3
Re: Bon Jovi - Live At Madison Square Garden (2008) 720p BDRip [TrueHD 5.1] + [AC3 5.1] (Concierto)

muchas gracias
 
22 Sep 2012
675
16
Re: Bon Jovi - Live At Madison Square Garden (2008) 720p BDRip [TrueHD 5.1] + [AC3 5.1] (Concierto)

Desc_g_
 

Mixman Kempes

Miembro VIP
28 Ago 2012
935
893
Re: Bon Jovi - Live At Madison Square Garden (2008) 720p BDRip [TrueHD 5.1] + [AC3 5.1] (Concierto)

Gracias Max por este conciertasoo°° de lujo.. bajandooooooooooo
 
Arriba