Bonnie and Clyde (2013) 720p BDRip Audio Inglés [Subt. Esp] (Thriller)

Maestro Revolver

Administrador
Registro
9 Ago 2012
Mensajes
3.157
Reacciones (ptje)
54.926


Bonnie-and-Clyde.jpg




FichaTecnica.jpg


TÍTULO ORIGINAL: Bonnie and Clyde (TV)
AÑO: 2013
DURACIÓN: 240 min.
PAÍS: USA
DIRECTOR: Bruce Beresford
GUIÓN: Joe Batteer, John Rice
REPARTO: Emile Hirsch, Holliday Grainger, Holly Hunter, William Hurt, Sarah Hyland, Lane Garrison, Elizabeth Reaser, Austin Hebert, Dale Dickey, Garrett Kruithof, David Jensen, David Carpenter, Joseph Randy Causin, John C. Coffman
PRODUCTORA: Sony Pictures Television / Storyline Entertainment / Lifetime / A&E / History
GÉNERO: Thriller | Basado en hechos reales. Miniserie de TV. Crimen. Años 30. Gran Depresión
imdb-logo.png
: http://www.imdb.com/title/tt2707792/




Sinopsis.jpg


Basado en la verdadera historia de Clyde Barrow, un carismático ladrón que se une a Bonnie Parker, una joven camarera de un pueblo pequeño. Los dos se embarcan en un uno de las más infames juergas de robos de bancos de la historia.




Trailer.jpg






Capturas.jpg


1.jpg


2.jpg


3.jpg


4.jpg


5.jpg


6.jpg


La pelicula NO tiene ninguna marca... solo colocamos el nombre de esta web en las capturas




MediaInfo.jpg


Código:
General
Format                                   : Matroska
Format version                           : Version 2
File size                                : 4.54 GiB
Duration                                 : 2h 54mn
Overall bit rate                         : 3 733 Kbps
Movie name                               : www.club-hd.com
Encoded date                             : UTC 2014-01-25 13:39:39
Writing application                      : mkvmerge v5.7.0 ('The Whirlwind') built on Jul  8 2012 20:08:51
Writing library                          : libebml v1.2.3 + libmatroska v1.3.0

Video
ID                                       : 1
Format                                   : AVC
Format/Info                              : Advanced Video Codec
Format profile                           : [email protected]
Format settings, CABAC                   : Yes
Format settings, ReFrames                : 6 frames
Muxing mode                              : Header stripping
Codec ID                                 : V_MPEG4/ISO/AVC
Duration                                 : 2h 54mn
Bit rate                                 : 3 019 Kbps
Width                                    : 1 280 pixels
Height                                   : 720 pixels
Display aspect ratio                     : 16:9
Frame rate mode                          : Constant
Frame rate                               : 23.976 fps
Color space                              : YUV
Chroma subsampling                       : 4:2:0
Bit depth                                : 8 bits
Scan type                                : Progressive
Bits/(Pixel*Frame)                       : 0.137
Stream size                              : 3.67 GiB (81%)
Title                                    : www.club-hd.com
Writing library                          : x264 core 138 r2358 9e941d1
Language                                 : English
Default                                  : Yes
Forced                                   : No

Audio
ID                                       : 2
Format                                   : AC-3
Format/Info                              : Audio Coding 3
Mode extension                           : CM (complete main)
Format settings, Endianness              : Big
Muxing mode                              : Header stripping
Codec ID                                 : A_AC3
Duration                                 : 2h 54mn
Bit rate mode                            : Constant
Bit rate                                 : 640 Kbps
Channel(s)                               : 6 channels
Channel positions                        : Front: L C R, Side: L R, LFE
Sampling rate                            : 48.0 KHz
Bit depth                                : 16 bits
Compression mode                         : Lossy
Stream size                              : 797 MiB (17%)
Title                                    : www.club-hd.com
Language                                 : English
Default                                  : Yes
Forced                                   : No

Text
ID                                       : 3
Format                                   : UTF-8
Codec ID                                 : S_TEXT/UTF8
Codec ID/Info                            : UTF-8 Plain Text
Title                                    : www.club-hd.com
Language                                 : Spanish
Default                                  : Yes
Forced                                   : No

Menu
00:00:00.000                             : en:Chapter 1
00:07:12.056                             : en:Chapter 2
00:12:58.736                             : en:Chapter 3
00:18:16.428                             : en:Chapter 4
00:24:21.543                             : en:Chapter 5
00:29:49.788                             : en:Chapter 6
00:33:40.893                             : en:Chapter 7
00:37:35.211                             : en:Chapter 8
00:39:54.350                             : en:Chapter 9
00:44:22.576                             : en:Chapter 10
00:49:29.216                             : en:Chapter 11
00:54:27.931                             : en:Chapter 12
00:59:48.209                             : en:Chapter 13
01:05:24.295                             : en:Chapter 14
01:12:29.887                             : en:Chapter 15
01:18:53.145                             : en:Chapter 16
01:23:17.617                             : en:Chapter 17
01:31:27.690                             : en:Chapter 18
01:35:36.981                             : en:Chapter 19
01:44:47.531                             : en:Chapter 20
01:52:19.858                             : en:Chapter 21
01:59:50.349                             : en:Chapter 22
02:05:13.005                             : en:Chapter 23
02:12:21.224                             : en:Chapter 24
02:16:01.695                             : en:Chapter 25
02:23:14.502                             : en:Chapter 26
02:26:39.999                             : en:Chapter 27
02:32:58.377                             : en:Chapter 28
02:37:17.678                             : en:Chapter 29
02:39:59.631                             : en:Chapter 30
02:45:36.009                             : en:Chapter 31
02:52:03.271                             : en:Chapter 32




Descarga.jpg



MEGA.jpg

Tenemos TODO el material de Club-HD disponible por Mega, enlaces 100% activos y online hasta la fecha

Llévate tus cuentas Mega PRO III gratis con tu membresía VIP!
Todos los posts vivos con links de Mega.
Todo el material de Club-HD desbloqueado y sin publicidad.

Obtén más información sobre nuestras Membresías VIP



UPLOADED_BANNER.png

Para ver este contenido oculto, debes dar click en el botón"Like", o cualquiera de las otras reacciones:

Me Gusta Me Gusta, Me Encanta Me Encanta, Jaja Jaja, Wow Wow, Triste Triste, Molesto Molesto
 
Última edición por un moderador:
Muy interesante y buena película. Sin duda una mas a la descarga pendiente. Gracias Gran Maestro Revolver
 
Volver