Breakout (2013) 1080p WEB-DL Dual Latino-Inglés [Subt. Esp] (Thriller)

Maestro Revolver

Miembro del Staff
Administrador
Registro
9 Ago 2012
Mensajes
3.157








TÍTULO ORIGINAL: Breakout (Split Decision)
AÑO: 2013
DURACIÓN: 118 min.
PAÍS: Canadá
DIRECTOR: Damian Lee
GUIÓN: Christian Piers Betley, Damian Lee, Deborah Wakeham
REPARTO: Brendan Fraser, Dominic Purcell, Ethan Suplee, Amy Price-Francis, Daniel Kash, Lara Daans, Holly Deveaux. Christian Martyn, Andrew Jackson, Layton Morrison, Anthony Ulc, Arcadia Kendal, Naomi Andrews
PRODUCTORA: Rollercoaster Entertainment / Split Decision Productions / Vortex Words Pictures
GÉNERO: Thriller
: http://www.imdb.com/title/tt2314886/






Dos niños (Holly Deveaux y Christian Martyn) son testigos de un asesinato en un viaje donde realizarán una acampada con un amigo de la familia (Daniel Kash). Cuando los criminales y también hermanos (Purcell y Suplee) comienzan a dar caza a los niños para matarlos e impedir que puedan declarar en su contra, aparece el padre para intentar salvarlos.
























La pelicula NO tiene ninguna marca... solo colocamos el nombre de esta web en las capturas






Código:
General
Format                                   : Matroska
Format version                           : Version 2
File size                                : 3.53 GiB
Duration                                 : 1h 29mn
Overall bit rate                         : 5 678 Kbps
Movie name                               : www.club-hd.com
Encoded date                             : UTC 2013-09-20 23:52:55
Writing application                      : mkvmerge v5.7.0 ('The Whirlwind') built on Jul  8 2012 20:08:51
Writing library                          : libebml v1.2.3 + libmatroska v1.3.0

Video
ID                                       : 1
Format                                   : AVC
Format/Info                              : Advanced Video Codec
Format profile                           : High@L4.0
Format settings, CABAC                   : Yes
Format settings, ReFrames                : 4 frames
Codec ID                                 : V_MPEG4/ISO/AVC
Duration                                 : 1h 29mn
Bit rate                                 : 4 989 Kbps
Width                                    : 1 916 pixels
Height                                   : 1 076 pixels
Display aspect ratio                     : 16:9
Frame rate mode                          : Constant
Frame rate                               : 23.976 fps
Color space                              : YUV
Chroma subsampling                       : 4:2:0
Bit depth                                : 8 bits
Scan type                                : Progressive
Bits/(Pixel*Frame)                       : 0.101
Stream size                              : 3.10 GiB (88%)
Title                                    : www.club-hd.com
Language                                 : English
Default                                  : Yes
Forced                                   : No
Color primaries                          : BT.709
Transfer characteristics                 : BT.709
Matrix coefficients                      : BT.709

Audio #1
ID                                       : 2
Format                                   : AC-3
Format/Info                              : Audio Coding 3
Mode extension                           : CM (complete main)
Format settings, Endianness              : Big
Codec ID                                 : A_AC3
Duration                                 : 1h 29mn
Bit rate mode                            : Constant
Bit rate                                 : 192 Kbps
Channel(s)                               : 2 channels
Channel positions                        : Front: L R
Sampling rate                            : 48.0 KHz
Bit depth                                : 16 bits
Compression mode                         : Lossy
Stream size                              : 122 MiB (3%)
Title                                    : www.club-hd.com  >>  Latino
Language                                 : Spanish
Default                                  : Yes
Forced                                   : No

Audio #2
ID                                       : 3
Format                                   : AC-3
Format/Info                              : Audio Coding 3
Mode extension                           : CM (complete main)
Format settings, Endianness              : Big
Codec ID                                 : A_AC3
Duration                                 : 1h 29mn
Bit rate mode                            : Constant
Bit rate                                 : 384 Kbps
Channel(s)                               : 6 channels
Channel positions                        : Front: L C R, Side: L R, LFE
Sampling rate                            : 48.0 KHz
Bit depth                                : 16 bits
Compression mode                         : Lossy
Stream size                              : 245 MiB (7%)
Title                                    : www.club-hd.com  >>  Inglés
Language                                 : English
Default                                  : No
Forced                                   : No

Text
ID                                       : 4
Format                                   : UTF-8
Codec ID                                 : S_TEXT/UTF8
Codec ID/Info                            : UTF-8 Plain Text
Language                                 : Spanish
Default                                  : No
Forced                                   : No

Menu
00:00:00.000                             : en:1
00:06:04.000                             : en:2
00:10:10.000                             : en:3
00:13:15.000                             : en:4
00:20:21.000                             : en:5
00:25:54.000                             : en:6
00:30:27.000                             : en:7
00:36:01.000                             : en:8
00:41:19.000                             : en:9
00:46:14.000                             : en:10
00:51:21.000                             : en:11
00:57:36.000                             : en:12
01:03:38.000                             : en:13
01:08:59.000                             : en:14
01:13:32.000                             : en:15
01:19:09.000                             : en:16








Enlaces de Mega y Google Drive solo disponibles para Miembros VIP

Compra tu Membresía VIP y apoya a Club-HD!

ATENCIÓN! Tenemos TODO el material de Club-HD disponible por Mega y Google Drive, enlaces 100% activos y online hasta la fecha

Llévate tus cuentas Mega PRO III gratis con tu membresía VIP!
Todos los posts vivos con links de Mega y Google Drive.
Todo el material de Club-HD desbloqueado y sin publicidad.

Click Aquí para más información.


Para ver este contenido oculto, debes dar click en una de las siguientes reacciones : Like Like, Love Love, Haha Haha, Wow Wow, Sad Sad, Angry Angry



 
Última edición por un moderador:

Usuarios Que Están Viendo Este Tema (Total: 1, Miembros: 0, Invitados: 1)

Quién Leyó Este Tema (Total Miembros: 1)

Arriba