Britney Spears Live - The Femme Fatale Tour (2011) 720p BDRip [AC3 5.1] (Concierto)

Maestro Revolver

Miembro del Staff
Administrador
Registro
9 Ago 2012
Mensajes
3.157








Britney Spears Live The Femme Fatale Tour es un especial en concierto del año 2011 de la cantante pop estadounidense Britney Spears, creado en base a las presentaciones del 13 y 14 de agosto de 2011 de su Femme Fatale Tour. Filmado en el Air Canada Centre de Toronto.



Track List:

01. Intro
02. Hold It Against Me
03. Up N' Down
04. 3
05. Piece Of Me
06. Sweet Seduction (Video Interlude)
07. Big Fat Bass
08. How I Roll
09. Lace And Leather
10. If U Seek Amy
11. Temptress (Video Interlude)
12. Gimme More
13. (Drop Dead) Beautiful (Feat. Sabi)
14. Don't Let Me Be The Last To Know
15. Boys
16. Code Name: Trouble (Video Interlude)
17. …Baby One More Time
18. S&M (Remix)
19. Trouble For Me
20. I'm A Slave 4 U
21. I Wanna Go
22. Womanizer
23. Sexy Assassin (Video Interlude)
24. Toxic
25. Till The World Ends (The Femme Fatale Remix) (Feat. Nicki Minaj)





























Código:
General
Format                                   : Matroska
Format version                           : Version 2
File size                                : 5.46 GiB
Duration                                 : 1h 25mn
Overall bit rate                         : 9 097 Kbps
Movie name                               : www.club-hd.com
Encoded date                             : UTC 2013-10-19 16:40:19
Writing application                      : mkvmerge v5.7.0 ('The Whirlwind') built on Jul  8 2012 20:08:51
Writing library                          : libebml v1.2.3 + libmatroska v1.3.0

Video
ID                                       : 1
Format                                   : AVC
Format/Info                              : Advanced Video Codec
Format profile                           : High@L4.1
Format settings, CABAC                   : Yes
Format settings, ReFrames                : 9 frames
Codec ID                                 : V_MPEG4/ISO/AVC
Duration                                 : 1h 25mn
Bit rate                                 : 8 466 Kbps
Width                                    : 1 280 pixels
Height                                   : 720 pixels
Display aspect ratio                     : 16:9
Frame rate mode                          : Constant
Frame rate                               : 29.970 fps
Color space                              : YUV
Chroma subsampling                       : 4:2:0
Bit depth                                : 8 bits
Scan type                                : Progressive
Bits/(Pixel*Frame)                       : 0.307
Stream size                              : 4.97 GiB (91%)
Title                                    : www.club-hd.com
Writing library                          : x264 core 116 r2074 2641b9e
Language                                 : English
Default                                  : Yes
Forced                                   : No

Audio
ID                                       : 2
Format                                   : AC-3
Format/Info                              : Audio Coding 3
Mode extension                           : CM (complete main)
Format settings, Endianness              : Big
Codec ID                                 : A_AC3
Duration                                 : 1h 25mn
Bit rate mode                            : Constant
Bit rate                                 : 640 Kbps
Channel(s)                               : 6 channels
Channel positions                        : Front: L C R, Side: L R, LFE
Sampling rate                            : 48.0 KHz
Bit depth                                : 16 bits
Compression mode                         : Lossy
Stream size                              : 393 MiB (7%)
Title                                    : www.club-hd.com
Language                                 : English
Default                                  : Yes
Forced                                   : No

Menu
00:00:00.000                             : en:Femme Fatale Video Vignette
00:02:18.004                             : en:Hold It Against Me
00:06:51.377                             : en:Up N' Down
00:10:32.331                             : en:3
00:14:28.667                             : en:Piece of Me
00:16:03.796                             : en:Sweet Seduction Video Vignette
00:18:38.984                             : en:Big Fat Bass
00:22:47.065                             : en:How I Roll
00:26:25.951                             : en:Leather and Lace
00:29:39.978                             : en:If U Seek Amy
00:33:27.005                             : en:Temptress Video Vignette
00:35:51.315                             : en:Gimme More (It's Britney Bitch)
00:39:19.957                             : en:Drop Dead Beautiful
00:43:06.984                             : en:Don't Let Me Be the Last to Know
00:46:33.090                             : en:Boys
00:50:34.364                             : en:Code Name: Trouble Video Vignette
00:52:37.354                             : en:Baby One More Time
00:54:13.550                             : en:S&M
00:56:16.639                             : en:Trouble
00:59:21.224                             : en:I'm a Slave 4 U
01:02:33.516                             : en:I Wanna Go
01:06:34.557                             : en:Womanizer
01:11:18.841                             : en:Sexy Assassin Video Vignette
01:13:03.979                             : en:Toxic
01:18:01.843                             : en:Till the World Ends
01:23:09.718                             : en:End Credits








Enlaces de Mega y Google Drive solo disponibles para Miembros VIP

Compra tu Membresía VIP y apoya a Club-HD!

ATENCIÓN! Tenemos TODO el material de Club-HD disponible por Mega y Google Drive, enlaces 100% activos y online hasta la fecha

Llévate tus cuentas Mega PRO III gratis con tu membresía VIP!
Todos los posts vivos con links de Mega y Google Drive.
Todo el material de Club-HD desbloqueado y sin publicidad.

Click Aquí para más información.



Para ver este contenido oculto, debes dar click en una de las siguientes reacciones : Like Like, Love Love, Haha Haha, Wow Wow, Sad Sad, Angry Angry
 
Última edición por un moderador:

Usuarios Que Están Viendo Este Tema (Total: 1, Miembros: 0, Invitados: 1)

Quién Leyó Este Tema (Total Miembros: 5)

Arriba