Brokeback Mountain (2005) 720p BDRip Dual Latino-Inglés [Subt. Esp] (Romance. Drama)

Maestro Revolver

Administrador
Registro
9 Ago 2012
Mensajes
3.157
Reacciones (ptje)
55.041


Brokeback-Mountain.jpg




FichaTecnica.jpg


TÍTULO ORIGINAL: Brokeback Mountain
AÑO: 2005
DURACIÓN: 134 min.
PAÍS: USA
DIRECTOR: Ang Lee
GUIÓN: Larry McMurtry, Diana Ossana (Historia: E. Annie Proulx)
REPARTO: Heath Ledger, Jake Gyllenhaal, Anne Hathaway, Michelle Williams, Randy Quaid, Linda Cardellini, Anna Faris, Scott Michael Campbell, David Harbour, Kate Mara
PRODUCTORA: Paramount Pictures / Focus Features / Good Machine / Alberta Filmworks
GÉNERO: Romance. Drama | Drama romántico. Homosexualidad. Años 60. Vida rural (Norteamérica)
imdb-logo.png
: http://www.imdb.com/title/tt0388795/

Premios: 2005: 3 Oscars: Mejor director, guión adaptado, bso. 8 nominaciones
2005: 4 Globos de Oro, incluyendo mejor película drama, director. 7 nominaciones
2005: 4 premios BAFTA: Película, actor sec, guión adaptado, director. 9 nominaciones
2005: National Board of Review: Mejor director (Ang Lee), actor (Jake Gyllenhaal)
2005: Círculo de críticos de Nueva York: Película, director, actor (Heath Ledger)
2005: Asociación de Críticos de Los Angeles: Mejor película y director
2005: Festival de Venecia: Mejor película
2005: Nominada al Cesar: Mejor película extranjera
2005: Nominada al David de Donatello: Mejor película extranjera
2005: American Film Institute (AFI): Top 10 - Mejores películas del año
2005: 3 Critics' Choice Awards: Mejor película, director, actriz secundaria. 8 nominacio




Sinopsis.jpg


Verano de 1963. Dos vaqueros, Ennis del Mar y Jack Twist, se conocen mientras hacen cola para ser contratados por el ranchero Joe Aguirre. Los dos aspiran a conseguir un trabajo estable, casarse y formar una familia. Cuando Aguirre les envía a cuidar ganado a la majestuosa montaña Brokeback, entre ambos surge un sentimiento de camaradería que deriva hacia una relación íntima. Al concluir el verano, tienen que abandonar Brokeback y seguir caminos diferentes.




Trailer.jpg






Capturas.jpg


1.jpg


2.jpg


3.jpg


4.jpg


5.jpg


6.jpg


La pelicula NO tiene ninguna marca... solo colocamos el nombre de esta web en las capturas




MediaInfo.jpg


Código:
General
Format                                   : Matroska
Format version                           : Version 2
File size                                : 3.50 GiB
Duration                                 : 2h 14mn
Overall bit rate                         : 3 731 Kbps
Movie name                               : www.club-hd.com
Encoded date                             : UTC 2013-04-18 05:15:29
Writing application                      : mkvmerge v5.7.0 ('The Whirlwind') built on Jul  8 2012 20:08:51
Writing library                          : libebml v1.2.3 + libmatroska v1.3.0

Video
ID                                       : 1
Format                                   : AVC
Format/Info                              : Advanced Video Codec
Format profile                           : [email protected]
Format settings, CABAC                   : Yes
Format settings, ReFrames                : 9 frames
Codec ID                                 : V_MPEG4/ISO/AVC
Duration                                 : 2h 14mn
Bit rate                                 : 3 016 Kbps
Width                                    : 1 280 pixels
Height                                   : 696 pixels
Display aspect ratio                     : 1.85:1
Frame rate mode                          : Constant
Frame rate                               : 23.976 fps
Color space                              : YUV
Chroma subsampling                       : 4:2:0
Bit depth                                : 8 bits
Scan type                                : Progressive
Bits/(Pixel*Frame)                       : 0.141
Stream size                              : 2.83 GiB (81%)
Title                                    : www.club-hd.com
Writing library                          : x264 core 129 r2245 bc13772
Language                                 : English
Default                                  : Yes
Forced                                   : No
Matrix coefficients                      : BT.709

Audio #1
ID                                       : 2
Format                                   : AC-3
Format/Info                              : Audio Coding 3
Mode extension                           : CM (complete main)
Format settings, Endianness              : Big
Codec ID                                 : A_AC3
Duration                                 : 2h 14mn
Bit rate mode                            : Constant
Bit rate                                 : 192 Kbps
Channel(s)                               : 2 channels
Channel positions                        : Front: L R
Sampling rate                            : 48.0 KHz
Bit depth                                : 16 bits
Compression mode                         : Lossy
Delay relative to video                  : 2s 0ms
Stream size                              : 185 MiB (5%)
Title                                    : www.club-hd.com  >>  Latino
Language                                 : Spanish
Default                                  : Yes
Forced                                   : No

Audio #2
ID                                       : 3
Format                                   : AC-3
Format/Info                              : Audio Coding 3
Mode extension                           : CM (complete main)
Format settings, Endianness              : Big
Codec ID                                 : A_AC3
Duration                                 : 2h 14mn
Bit rate mode                            : Constant
Bit rate                                 : 448 Kbps
Channel(s)                               : 6 channels
Channel positions                        : Front: L C R, Side: L R, LFE
Sampling rate                            : 48.0 KHz
Bit depth                                : 16 bits
Compression mode                         : Lossy
Stream size                              : 431 MiB (12%)
Title                                    : www.club-hd.com  >>  Inglés
Language                                 : English
Default                                  : No
Forced                                   : No

Text
ID                                       : 4
Format                                   : UTF-8
Codec ID                                 : S_TEXT/UTF8
Codec ID/Info                            : UTF-8 Plain Text
Language                                 : Spanish
Default                                  : No
Forced                                   : No




Descarga.jpg



MEGA.jpg

Tenemos TODO el material de Club-HD disponible por Mega, enlaces 100% activos y online hasta la fecha

Llévate tus cuentas Mega PRO III gratis con tu membresía VIP!
Todos los posts vivos con links de Mega.
Todo el material de Club-HD desbloqueado y sin publicidad.

Obtén más información sobre nuestras Membresías VIP



UPLOADED_BANNER.png

Para ver este contenido oculto, debes dar click en el botón"Like", o cualquiera de las otras reacciones:

Me Gusta Me Gusta, Me Encanta Me Encanta, Jaja Jaja, Wow Wow, Triste Triste, Molesto Molesto

 
Última edición por un moderador:
La vi un par de veces, muy buena la pela ...Grax ...
 
Siempre sorprendiendo vos Bestia ehehe :crcjd::aplausos: muchisimas graciasssss....
 
A de muchos sentimientos un romance prohibido, es buena la película de todo un poco Gracias R21 Saludos.
 
gracias master, esta pelicula tiene grandess actores como lo era Heath Ledger


Saludos xD
 
uuuuuuuuuuuh la wea mamasan, ya pero igual la descargare pa la coleccion :crcjd:
 
Volver