Broken City (2013) m-720p BDRip Dual Latino-Inglés [Subt. Esp] (Thriller. Intriga. Drama)

Maestro Revolver

Well-known member
Miembro del Staff
Administrador
Registro
9 Ago 2012
Mensajes
3.569
Reacciones
59.346
Puntos
113

Reputation:









TÍTULO ORIGINAL: Broken City
AÑO: 2013
DURACIÓN: 109 min.
PAÍS: USA
DIRECTOR: Allen Hughes
GUIÓN: Brian Tucker
REPARTO: Mark Wahlberg, Russell Crowe, Catherine Zeta-Jones, Jeffrey Wright, Barry Pepper, Kyle Chandler, Justin Chambers, James Ransone, Natalie Martinez, Alona Tal, Griffin Dunne, James Ransone
PRODUCTORA: 20th Century Fox / Regency Enterprises / Mr. Mudd Productions / Mandate Pictures
GÉNERO: Thriller. Intriga. Drama | Crimen. Política
: http://www.imdb.com/title/tt1235522/






Después de abandonar la Policía, Billy Taggart (Mark Wahlberg) trabaja como detective privado. Un día un candidato a alcalde (Russell Crowe) le encarga que investigue a su mujer porque sospecha que le es infiel. Inmediatamente después de confirmar estas sospechas, el amante de la esposa del político es hallado muerto. Taggart entonces decide proseguir la investigación.
























La pelicula NO tiene ninguna marca... solo colocamos el nombre de esta web en las capturas






Código:
General
Format                                   : Matroska
Format version                           : Version 2
File size                                : 2.55 GiB
Duration                                 : 1h 48mn
Overall bit rate                         : 3 355 Kbps
Movie name                               : www.club-hd.com
Encoded date                             : UTC 2013-04-16 00:12:21
Writing application                      : mkvmerge v5.7.0 ('The Whirlwind') built on Jul  8 2012 20:08:51
Writing library                          : libebml v1.2.3 + libmatroska v1.3.0

Video
ID                                       : 1
Format                                   : AVC
Format/Info                              : Advanced Video Codec
Format profile                           : High@L4.1
Format settings, CABAC                   : Yes
Format settings, ReFrames                : 9 frames
Codec ID                                 : V_MPEG4/ISO/AVC
Duration                                 : 1h 48mn
Bit rate                                 : 2 716 Kbps
Width                                    : 1 280 pixels
Height                                   : 532 pixels
Display aspect ratio                     : 2.40:1
Frame rate mode                          : Constant
Frame rate                               : 23.976 fps
Color space                              : YUV
Chroma subsampling                       : 4:2:0
Bit depth                                : 8 bits
Scan type                                : Progressive
Bits/(Pixel*Frame)                       : 0.166
Stream size                              : 2.01 GiB (79%)
Title                                    : www.club-hd.com
Writing library                          : x264 core 130 r2273 b3065e6
Language                                 : English
Default                                  : Yes
Forced                                   : No

Audio #1
ID                                       : 2
Format                                   : AC-3
Format/Info                              : Audio Coding 3
Mode extension                           : CM (complete main)
Format settings, Endianness              : Big
Codec ID                                 : A_AC3
Duration                                 : 1h 48mn
Bit rate mode                            : Constant
Bit rate                                 : 192 Kbps
Channel(s)                               : 2 channels
Channel positions                        : Front: L R
Sampling rate                            : 48.0 KHz
Bit depth                                : 16 bits
Compression mode                         : Lossy
Stream size                              : 149 MiB (6%)
Title                                    : www.club-hd.com  >>  Latino
Language                                 : Spanish
Default                                  : Yes
Forced                                   : No

Audio #2
ID                                       : 3
Format                                   : AC-3
Format/Info                              : Audio Coding 3
Mode extension                           : CM (complete main)
Format settings, Endianness              : Big
Codec ID                                 : A_AC3
Duration                                 : 1h 48mn
Bit rate mode                            : Constant
Bit rate                                 : 448 Kbps
Channel(s)                               : 6 channels
Channel positions                        : Front: L C R, Side: L R, LFE
Sampling rate                            : 48.0 KHz
Bit depth                                : 16 bits
Compression mode                         : Lossy
Stream size                              : 348 MiB (13%)
Title                                    : www.club-hd.com  >>  Inglés
Language                                 : English
Default                                  : No
Forced                                   : No

Text
ID                                       : 4
Format                                   : UTF-8
Codec ID                                 : S_TEXT/UTF8
Codec ID/Info                            : UTF-8 Plain Text
Language                                 : Spanish
Default                                  : No
Forced                                   : No

Menu
00:00:00.000                             : en:Chapter 1
00:07:27.447                             : en:Chapter 2
00:14:28.326                             : en:Chapter 3
00:20:49.123                             : en:Chapter 4
00:29:02.157                             : en:Chapter 5
00:34:05.460                             : en:Chapter 6
00:40:37.518                             : en:Chapter 7
00:46:11.686                             : en:Chapter 8
00:52:03.370                             : en:Chapter 9
01:00:58.572                             : en:Chapter 10
01:08:01.619                             : en:Chapter 11
01:14:20.873                             : en:Chapter 12
01:23:21.121                             : en:Chapter 13
01:28:38.021                             : en:Chapter 14
01:35:52.163                             : en:Chapter 15
01:42:36.525                             : en:Chapter 16








Enlaces de Mega y Fireload solo disponibles para Miembros VIP

Compra tu Membresía VIP y apoya a Club-HD!

ATENCIÓN! Tenemos TODO el material de Club-HD disponible por Mega y Fireload, enlaces 100% activos y online hasta la fecha

Llévate tus cuentas Mega PRO II gratis con tu membresía VIP!
Todos los posts vivos con links de Mega y Fireload.
Todo el material de Club-HD desbloqueado y sin publicidad.

Click Aquí para más información.



Para ver este contenido oculto, debes dar click en una de las siguientes reacciones : Like Like, Love Love, Haha Haha, Wow Wow, Sad Sad, Angry Angry

 
Última edición por un moderador:

Mate78

Ladron de mi cerebro
Miembro del Staff
Súper Moderador
Registro
27 Ago 2012
Mensajes
1.235
Reacciones
918
Puntos
113

Reputation:

Terrible peli , gracias Bestia !!!!:dplgar:
 

Ezze

Well-known member
Miembro del Staff
Súper Moderador
Registro
28 Ago 2012
Mensajes
1.663
Reacciones
1.790
Puntos
113
Ubicación
En la Torre de Observación

Reputation:

Excelente aporte!!! :dplgar: Una muy buena historia!! Muchas gracias Revolver!!! Pl4yb0y Saludos bye
 

zacygal

Well-known member
Registro
3 Sep 2012
Mensajes
1.515
Reacciones
1.536
Puntos
113
Edad
49

Reputation:

muy buena la pela gracias ...
 

Usuarios Que Están Viendo Este Tema (Total: 1, Miembros: 0, Invitados: 1)

Arriba