Brother Bear (2003) m-720p Dual Latino-Inglés [Subt. Esp] (Animación)

Maestro Revolver

Administrador
Registro
9 Ago 2012
Mensajes
3.157
Reacciones (ptje)
55.208


Brother-Bear+.jpg




FichaTecnica.jpg


TÍTULO ORIGINAL: Brother Bear
AÑO: 2003
DURACIÓN: 85 min.
PAÍS: USA
DIRECTOR: Aaron Blaise, Bob Walker
GUIÓN: Steve Bencich, Ron J. Friedman, Tab Murphy, Broose Johnson
REPARTO: Animation
PRODUCTORA: Walt Disney Pictures
GÉNERO: Animación. Aventuras. Fantástico. Infantil | Osos
imdb-logo.png
: http://www.imdb.com/title/tt0328880/

PREMIOS: 2003: Nominada al Oscar: Mejor largometraje animado
2003: Critics' Choice Awards: Nominada a mejor largometraje de animación




Sinopsis.jpg


En los bosques del noroeste americano vive un niño indio llamado Kenai, cuya vida sufre un giro inesperado cuando los Grandes Espíritus lo transforman en un oso, el animal que más odia. Kenai se hace amigo de un osezno llamado Koda y se propone recuperar su forma humana. Mientras, su hermano (que no sabe que Kenai es ahora un oso) lo persigue para cumplir una misión de venganza en la que está en juego el honor familiar.




Trailer.jpg






Capturas.jpg


1.jpg


2.jpg


3.jpg


4.jpg


5.jpg


6.jpg


La pelicula NO tiene ninguna marca... solo colocamos el nombre de esta web en las capturas




MediaInfo.jpg


Código:
General
Format                                   : Matroska
Format version                           : Version 2
File size                                : 2.28 GiB
Duration                                 : 1h 25mn
Overall bit rate                         : 3 839 Kbps
Movie name                               : www.club-hd.com
Encoded date                             : UTC 2013-03-06 15:09:30
Writing application                      : mkvmerge v5.7.0 ('The Whirlwind') built on Jul  8 2012 20:08:51
Writing library                          : libebml v1.2.3 + libmatroska v1.3.0

Video
ID                                       : 1
Format                                   : AVC
Format/Info                              : Advanced Video Codec
Format profile                           : [email protected]
Format settings, CABAC                   : Yes
Format settings, ReFrames                : 5 frames
Codec ID                                 : V_MPEG4/ISO/AVC
Duration                                 : 1h 25mn
Bit rate                                 : 2 941 Kbps
Width                                    : 1 280 pixels
Height                                   : 544 pixels
Display aspect ratio                     : 2.35:1
Frame rate mode                          : Constant
Frame rate                               : 23.976 fps
Color space                              : YUV
Chroma subsampling                       : 4:2:0
Bit depth                                : 8 bits
Scan type                                : Progressive
Bits/(Pixel*Frame)                       : 0.176
Stream size                              : 1.70 GiB (75%)
Title                                    : www.club-hd.com
Writing library                          : x264 core 129 r2245 bc13772
Language                                 : English
Default                                  : Yes
Forced                                   : No

Audio #1
ID                                       : 2
Format                                   : AC-3
Format/Info                              : Audio Coding 3
Mode extension                           : CM (complete main)
Format settings, Endianness              : Big
Codec ID                                 : A_AC3
Duration                                 : 1h 25mn
Bit rate mode                            : Constant
Bit rate                                 : 448 Kbps
Channel(s)                               : 6 channels
Channel positions                        : Front: L C R, Side: L R, LFE
Sampling rate                            : 48.0 KHz
Bit depth                                : 16 bits
Compression mode                         : Lossy
Stream size                              : 273 MiB (12%)
Title                                    : www.club-hd.com  >>  Latino
Language                                 : Spanish
Default                                  : Yes
Forced                                   : No

Audio #2
ID                                       : 3
Format                                   : AC-3
Format/Info                              : Audio Coding 3
Mode extension                           : CM (complete main)
Format settings, Endianness              : Big
Codec ID                                 : A_AC3
Duration                                 : 1h 25mn
Bit rate mode                            : Constant
Bit rate                                 : 448 Kbps
Channel(s)                               : 6 channels
Channel positions                        : Front: L C R, Side: L R, LFE
Sampling rate                            : 48.0 KHz
Bit depth                                : 16 bits
Compression mode                         : Lossy
Stream size                              : 273 MiB (12%)
Title                                    : www.club-hd.com  >>  Inglés
Language                                 : English
Default                                  : No
Forced                                   : No

Text
ID                                       : 4
Format                                   : UTF-8
Codec ID                                 : S_TEXT/UTF8
Codec ID/Info                            : UTF-8 Plain Text
Language                                 : Spanish
Default                                  : No
Forced                                   : No

Menu
00:00:00.000                             : en:00:00:00.000
00:02:01.288                             : en:00:02:01.288
00:07:03.465                             : en:00:07:03.465
00:11:24.100                             : en:00:11:24.100
00:14:33.206                             : en:00:14:33.206
00:15:21.254                             : en:00:15:21.254
00:20:10.084                             : en:00:20:10.084
00:24:34.473                             : en:00:24:34.473
00:27:06.708                             : en:00:27:06.708
00:29:45.617                             : en:00:29:45.617
00:33:01.188                             : en:00:33:01.188
00:36:18.927                             : en:00:36:18.927
00:38:26.054                             : en:00:38:26.054
00:42:22.582                             : en:00:42:22.582
00:44:18.030                             : en:00:44:18.030
00:47:10.369                             : en:00:47:10.369
00:48:59.520                             : en:00:48:59.520
00:50:16.055                             : en:00:50:16.055
00:54:21.133                             : en:00:54:21.133
00:56:46.778                             : en:00:56:46.778
01:00:11.316                             : en:01:00:11.316
01:04:58.895                             : en:01:04:58.895
01:08:28.855                             : en:01:08:28.855
01:09:14.817                             : en:01:09:14.817
01:11:20.109                             : en:01:11:20.109
01:16:55.986                             : en:01:16:55.986
01:18:01.468                             : en:01:18:01.468
01:19:29.139                             : en:01:19:29.139




Aporte exclusivo!! de Club-HD




Descarga.jpg




google-drive-vip.png


Tenemos TODO el material de Club-HD disponible por Mega, enlaces 100% activos y online hasta la fecha

Llévate tus cuentas Mega PRO III gratis con tu membresía VIP!
Todos los posts vivos con links de Mega.
Todo el material de Club-HD desbloqueado y sin publicidad.

Obtén más información sobre nuestras Membresías VIP




MEGA.jpg

Tenemos TODO el material de Club-HD disponible por Mega, enlaces 100% activos y online hasta la fecha

Llévate tus cuentas Mega PRO III gratis con tu membresía VIP!
Todos los posts vivos con links de Mega.
Todo el material de Club-HD desbloqueado y sin publicidad.

Obtén más información sobre nuestras Membresías VIP



UPLOADED_BANNER.png

Para ver este contenido oculto, debes dar click en el botón"Like", o cualquiera de las otras reacciones:

Me Gusta Me Gusta, Me Encanta Me Encanta, Jaja Jaja, Wow Wow, Triste Triste, Molesto Molesto

 
Última edición por un moderador:
NOOOOOO . que categoria Bestia , un golazo de mitad de cancha , los felicito por tan tremendoo aporte , gracias R21
 
Pero que ven mis ojos :OHHH: un super peliculazo gracias master por esta buena pelicula xD

Saludos!
 
una gran pelicula que la verdad aunque uno ya este grande si saca varias lagrimas, gracias revolver
 
Volver