Casino (1995) m-720p BDRip Dual Latino-Inglés [Subt. Esp] (Thriller. Drama)

Maestro Revolver

Administrador
Registro
9 Ago 2012
Mensajes
3.157
Reacciones (ptje)
54.925


Casino.jpg




FichaTecnica.jpg


TÍTULO ORIGINAL: Casino
AÑO: 1995
DURACIÓN: 173 min.
PAÍS: USA
DIRECTOR: Martin Scorsese
GUIÓN: Nicholas Pileggi, Martin Scorsese
REPARTO: Robert De Niro, Sharon Stone, Joe Pesci, James Woods, Don Rickles, Alan King, Kevin Pollak, L.Q. Jones, Dick Smothers, Frank Vincent, John Bloom, Clem Caserta, Melissa Prophet, Pasquale Cajano, Vinny Vella, Frankie Avalon
PRODUCTORA: Universal Pictures / Légende Entreprises / Syalis DA / De Fina-Cappa
GÉNERO: Thriller. Drama | Mafia. Crimen. Juego. Años 70. Años 80
imdb-logo.png
: http://www.imdb.com/title/tt0112641/


Premios: 1995: Nominada al Oscar: Mejor actriz (Sharon Stone)
1995: Globo de Oro: Mejor actriz drama (Sharon Stone). 2 nominaciones





Sinopsis.jpg


Las Vegas, 1973. Sam "Ace" Rothstein, un profesional de las apuestas, es el eficaz director de un importante casino que pertenece a un grupo de mafiosos. Su misión es controlar el funcionamiento del negocio y garantizar que la corriente de dinero que va a parar a manos de sus jefes siga fluyendo. Las Vegas es un lugar ideal para millonarios y políticos, pero es también lugar de paso de tahúres, prestamistas, traficantes de drogas y matones. Un día el violento Nicky Santoro, al que sus jefes han encargado que cuide de Sam, llega a Las Vegas con la intención de quedarse.




Trailer.jpg






Capturas.jpg


1.jpg


2.jpg


3.jpg


4.jpg


5.jpg


6.jpg


La pelicula NO tiene ninguna marca... solo colocamos el nombre de esta web en las capturas




MediaInfo.jpg


Código:
General
Format                                   : Matroska
Format version                           : Version 2
File size                                : 4.78 GiB
Duration                                 : 2h 58mn
Overall bit rate                         : 3 836 Kbps
Movie name                               : www.club-hd.com
Encoded date                             : UTC 2013-05-11 16:25:37
Writing application                      : mkvmerge v5.7.0 ('The Whirlwind') built on Jul  8 2012 20:08:51
Writing library                          : libebml v1.2.3 + libmatroska v1.3.0

Video
ID                                       : 1
Format                                   : AVC
Format/Info                              : Advanced Video Codec
Format profile                           : [email protected]
Format settings, CABAC                   : Yes
Format settings, ReFrames                : 6 frames
Codec ID                                 : V_MPEG4/ISO/AVC
Duration                                 : 2h 58mn
Bit rate                                 : 2 750 Kbps
Width                                    : 1 280 pixels
Height                                   : 544 pixels
Display aspect ratio                     : 2.35:1
Frame rate mode                          : Constant
Frame rate                               : 23.976 fps
Color space                              : YUV
Chroma subsampling                       : 4:2:0
Bit depth                                : 8 bits
Scan type                                : Progressive
Bits/(Pixel*Frame)                       : 0.165
Stream size                              : 3.33 GiB (70%)
Title                                    : www.club-hd.com
Writing library                          : x264 core 130 r2273 b3065e6
Language                                 : English
Default                                  : Yes
Forced                                   : No

Audio #1
ID                                       : 2
Format                                   : AC-3
Format/Info                              : Audio Coding 3
Mode extension                           : CM (complete main)
Format settings, Endianness              : Big
Codec ID                                 : A_AC3
Duration                                 : 2h 58mn
Bit rate mode                            : Constant
Bit rate                                 : 448 Kbps
Channel(s)                               : 6 channels
Channel positions                        : Front: L C R, Side: L R, LFE
Sampling rate                            : 48.0 KHz
Bit depth                                : 16 bits
Compression mode                         : Lossy
Stream size                              : 572 MiB (12%)
Title                                    : www.club-hd.com  >>  Latino
Language                                 : Spanish
Default                                  : Yes
Forced                                   : No

Audio #2
ID                                       : 3
Format                                   : AC-3
Format/Info                              : Audio Coding 3
Mode extension                           : CM (complete main)
Format settings, Endianness              : Big
Codec ID                                 : A_AC3
Duration                                 : 2h 58mn
Bit rate mode                            : Constant
Bit rate                                 : 640 Kbps
Channel(s)                               : 6 channels
Channel positions                        : Front: L C R, Side: L R, LFE
Sampling rate                            : 48.0 KHz
Bit depth                                : 16 bits
Compression mode                         : Lossy
Stream size                              : 817 MiB (17%)
Title                                    : www.club-hd.com  >>  Inglés
Language                                 : English
Default                                  : No
Forced                                   : No

Text #1
ID                                       : 4
Format                                   : UTF-8
Codec ID                                 : S_TEXT/UTF8
Codec ID/Info                            : UTF-8 Plain Text
Title                                    : Forzados
Language                                 : Spanish
Default                                  : Yes
Forced                                   : No

Text #2
ID                                       : 5
Format                                   : UTF-8
Codec ID                                 : S_TEXT/UTF8
Codec ID/Info                            : UTF-8 Plain Text
Language                                 : Spanish
Default                                  : No
Forced                                   : No

Menu
00:00:00.000                             : en:00:00:00.000
00:04:55.629                             : en:00:04:55.629
00:21:58.234                             : en:00:21:58.234
00:27:49.585                             : en:00:27:49.585
00:33:46.733                             : en:00:33:46.733
00:38:57.168                             : en:00:38:57.168
00:58:23.125                             : en:00:58:23.125
01:06:11.301                             : en:01:06:11.301
01:26:24.638                             : en:01:26:24.638
01:31:49.754                             : en:01:31:49.754
02:00:29.514                             : en:02:00:29.514
02:14:10.376                             : en:02:14:10.376
02:28:31.569                             : en:02:28:31.569
02:39:55.795                             : en:02:39:55.795
02:46:56.465                             : en:02:46:56.465
02:50:12.119                             : en:02:50:12.119




Descarga.jpg



MEGA.jpg

Tenemos TODO el material de Club-HD disponible por Mega, enlaces 100% activos y online hasta la fecha

Llévate tus cuentas Mega PRO III gratis con tu membresía VIP!
Todos los posts vivos con links de Mega.
Todo el material de Club-HD desbloqueado y sin publicidad.

Obtén más información sobre nuestras Membresías VIP

Google Drive Vip.png

Tenemos TODO el material de Club-HD disponible por Mega, enlaces 100% activos y online hasta la fecha

Llévate tus cuentas Mega PRO III gratis con tu membresía VIP!
Todos los posts vivos con links de Mega.
Todo el material de Club-HD desbloqueado y sin publicidad.

Obtén más información sobre nuestras Membresías VIP


google-drive.png

Para ver este contenido oculto, debes dar click en el botón"Like", o cualquiera de las otras reacciones:

Me Gusta Me Gusta, Me Encanta Me Encanta, Jaja Jaja, Wow Wow, Triste Triste, Molesto Molesto
UPLOADED_BANNER.png

Para ver este contenido oculto, debes dar click en el botón"Like", o cualquiera de las otras reacciones:

Me Gusta Me Gusta, Me Encanta Me Encanta, Jaja Jaja, Wow Wow, Triste Triste, Molesto Molesto
 
Última edición por un moderador:
Mi ignorancia me hace querer bajarla l0l Muchas gracias Revoler :dplgar: Derecho a la lista xD Saludos pibe bye
 
Listo con esta ya cumpliste todos mis sueños en HD !!! era la ultima de la lista de pedidos !!!!!muchisimas gracias ...... BESTIAAAAAAAAAA:dplgar:Tb_up3:aplausos:Hurr4hP4ranoicoLXR_2LXR_2
 
Que bien RevolTb_up3, si Mate la estaba pidiendo hay que bajarla :dplgar:, Muchas gracias Revol !! :aplausos:
 
parece que me leen la mente, que titulazos, gracias muchas gracias
 
Volver