Chasing Mavericks (2012) m-720p Dual Latino-Inglés [Subt. Esp-Ing] (Drama)

Maestro Revolver

Well-known member
Miembro del Staff
Administrador
Registro
9 Ago 2012
Mensajes
3.569
Reacciones
59.353
Puntos
113

Reputation:









TÍTULO ORIGINAL: Chasing Mavericks
AÑO: 2012
DURACIÓN: 116 min.
PAÍS: USA
DIRECTOR: Curtis Hanson, Michael Apted
GUIÓN: Brandon Hooper, Kario Salem
REPARTO: Jonny Weston, Gerard Butler, Elisabeth Shue, Abigail Spencer, Leven Rambin, Scott Eastwood, Taylor Handley, Jenica Bergere, Alexander Kanellakos, Channon Roe, Harley Graham, Cooper Timberline, Devin Crittenden, Steven Wiig, Keegan Boos
PRODUCTORA: Fox 2000 Pictures / Walden Media
GÉNERO: Drama | Deporte. Surf. Basado en hechos reales
: http://www.imdb.com/title/tt1629757/






Narra la historia del fenómeno del surf Jay Moriarity (Jonny Weston). Cuando, a la edad de 15 años, Jay descubre que las míticas olas conocidas como 'Mavericks', unas de las más descomunales del planeta, se aproximan a su hogar de Santa Cruz, donde van a romper, busca la ayuda del legendario Frosty Hesson (Gerard Butler) para que lo entrene y así poder sobrevivir a dicho fenómeno. Cuando Jay y Frosty se embarcan en el empeño de lograr lo imposible va surgiendo entre ellos una singular amistad que transforma sus vidas; y su intento de dominar a las Mavericks se convierte en algo que rebasa la práctica del surf.
























La pelicula NO tiene ninguna marca... solo colocamos el nombre de esta web en las capturas






Código:
General
Format                                   : Matroska
Format version                           : Version 2
File size                                : 3.17 GiB
Duration                                 : 1h 56mn
Overall bit rate                         : 3 892 Kbps
Movie name                               : www.club-hd.com
Encoded date                             : UTC 2013-02-21 06:17:16
Writing application                      : mkvmerge v5.7.0 ('The Whirlwind') built on Jul  8 2012 20:08:51
Writing library                          : libebml v1.2.3 + libmatroska v1.3.0

Video
ID                                       : 1
Format                                   : AVC
Format/Info                              : Advanced Video Codec
Format profile                           : High@L4.1
Format settings, CABAC                   : Yes
Format settings, ReFrames                : 9 frames
Codec ID                                 : V_MPEG4/ISO/AVC
Duration                                 : 1h 56mn
Bit rate                                 : 2 803 Kbps
Width                                    : 1 280 pixels
Height                                   : 690 pixels
Display aspect ratio                     : 1.85:1
Frame rate mode                          : Constant
Frame rate                               : 23.976 fps
Color space                              : YUV
Chroma subsampling                       : 4:2:0
Bit depth                                : 8 bits
Scan type                                : Progressive
Bits/(Pixel*Frame)                       : 0.132
Stream size                              : 2.22 GiB (70%)
Title                                    : www.club-hd.com
Writing library                          : x264 core 129 r2245 bc13772
Language                                 : English
Default                                  : Yes
Forced                                   : No

Audio #1
ID                                       : 2
Format                                   : AC-3
Format/Info                              : Audio Coding 3
Mode extension                           : CM (complete main)
Format settings, Endianness              : Big
Codec ID                                 : A_AC3
Duration                                 : 1h 56mn
Bit rate mode                            : Constant
Bit rate                                 : 448 Kbps
Channel(s)                               : 6 channels
Channel positions                        : Front: L C R, Side: L R, LFE
Sampling rate                            : 48.0 KHz
Bit depth                                : 16 bits
Compression mode                         : Lossy
Stream size                              : 373 MiB (12%)
Title                                    : www.club-hd.com  >>  Latino
Language                                 : Spanish
Default                                  : Yes
Forced                                   : No

Audio #2
ID                                       : 3
Format                                   : AC-3
Format/Info                              : Audio Coding 3
Mode extension                           : CM (complete main)
Format settings, Endianness              : Big
Codec ID                                 : A_AC3
Duration                                 : 1h 56mn
Bit rate mode                            : Constant
Bit rate                                 : 640 Kbps
Channel(s)                               : 6 channels
Channel positions                        : Front: L C R, Side: L R, LFE
Sampling rate                            : 48.0 KHz
Bit depth                                : 16 bits
Compression mode                         : Lossy
Stream size                              : 533 MiB (16%)
Title                                    : www.club-hd.com  >>  Inglés
Language                                 : English
Default                                  : No
Forced                                   : No

Text #1
ID                                       : 4
Format                                   : UTF-8
Codec ID                                 : S_TEXT/UTF8
Codec ID/Info                            : UTF-8 Plain Text
Language                                 : Spanish
Default                                  : No
Forced                                   : No

Text #2
ID                                       : 5
Format                                   : UTF-8
Codec ID                                 : S_TEXT/UTF8
Codec ID/Info                            : UTF-8 Plain Text
Language                                 : English
Default                                  : No
Forced                                   : No

Menu
00:00:00.000                             : en:Chapter 1
00:04:43.366                             : en:Chapter 2
00:08:35.348                             : en:Chapter 3
00:12:48.685                             : en:Chapter 4
00:17:09.028                             : en:Chapter 5
00:22:04.198                             : en:Chapter 6
00:28:15.485                             : en:Chapter 7
00:34:08.463                             : en:Chapter 8
00:38:34.771                             : en:Chapter 9
00:41:36.452                             : en:Chapter 10
00:44:13.693                             : en:Chapter 11
00:48:46.966                             : en:Chapter 12
00:52:18.510                             : en:Chapter 13
00:58:32.926                             : en:Chapter 14
01:00:36.550                             : en:Chapter 15
01:04:33.536                             : en:Chapter 16
01:07:56.864                             : en:Chapter 17
01:12:04.445                             : en:Chapter 18
01:15:16.721                             : en:Chapter 19
01:19:06.867                             : en:Chapter 20
01:23:13.405                             : en:Chapter 21
01:27:31.121                             : en:Chapter 22
01:31:22.185                             : en:Chapter 23
01:35:52.538                             : en:Chapter 24
01:39:34.135                             : en:Chapter 25
01:44:28.012                             : en:Chapter 26
01:49:12.171                             : en:Chapter 27
01:50:18.487                             : en:Chapter 28










Enlaces de Mega y Fireload solo disponibles para Miembros VIP

Compra tu Membresía VIP y apoya a Club-HD!

ATENCIÓN! Tenemos TODO el material de Club-HD disponible por Mega y Fireload, enlaces 100% activos y online hasta la fecha

Llévate tus cuentas Mega PRO II gratis con tu membresía VIP!
Todos los posts vivos con links de Mega y Fireload.
Todo el material de Club-HD desbloqueado y sin publicidad.

Click Aquí para más información.




Enlaces de Mega y Fireload solo disponibles para Miembros VIP

Compra tu Membresía VIP y apoya a Club-HD!

ATENCIÓN! Tenemos TODO el material de Club-HD disponible por Mega y Fireload, enlaces 100% activos y online hasta la fecha

Llévate tus cuentas Mega PRO II gratis con tu membresía VIP!
Todos los posts vivos con links de Mega y Fireload.
Todo el material de Club-HD desbloqueado y sin publicidad.

Click Aquí para más información.



Para ver este contenido oculto, debes dar click en una de las siguientes reacciones : Like Like, Love Love, Haha Haha, Wow Wow, Sad Sad, Angry Angry

 
Última edición:

DoomsDay Elite

Well-known member
Registro
5 Sep 2012
Mensajes
1.225
Reacciones
1.101
Puntos
113

Reputation:

surf en club hd es porque vale la pena vi los prologos y se ve buena Tb_up3 muchas gracias revolver aun esperando life of pi en 1080p
 

Ezze

Well-known member
Miembro del Staff
Súper Moderador
Registro
28 Ago 2012
Mensajes
1.663
Reacciones
1.790
Puntos
113
Ubicación
En la Torre de Observación

Reputation:

bye Gracias Revolver!! Pinta a que es una buena historia!! xD Habra de descargarla :D Saludos maestro!! Tb_up3 guit4r_3
 

Pedrum

The Buckminster
Registro
28 Ago 2012
Mensajes
1.092
Reacciones
1.546
Puntos
113
Ubicación
Bahia Blanca

Reputation:

Gracias, el trailer indica que va a ser una buena película.

Saludos revolver! victory
 

Usuarios Que Están Viendo Este Tema (Total: 1, Miembros: 0, Invitados: 1)

Arriba