Che: Part One (2008) m-720p BDRip Audio Latino (Drama)

Maestro Revolver

Well-known member
Miembro del Staff
Administrador
Registro
9 Ago 2012
Mensajes
3.569
Reacciones
59.366
Puntos
113

Reputation:









TÍTULO ORIGINAL: Che: El argentino (Che: The Argentine)
AÑO: 2008
DURACIÓN: 140 min.
PAÍS: USA
DIRECTOR: Steven Soderbergh
GUIÓN: Peter Buchman (Autobiografía: Ernesto 'Che' Guevara)
REPARTO: Benicio del Toro, Demián Bichir, Elvira Mínguez, Jorge Perugorría, Catalina Sandino Moreno, Vladimir Cruz, Unax Ugalde, Rodrigo Santoro, Óscar Isaac, Yul Vazquez, Édgar Ramírez, Julia Ormond, Alfredo De Quesada, Jsu García, Benjamín Benítez, Armando Riesco
PRODUCTORA: Coproducción USA-España; Focus Features / Wild Bunch / Morena Films / Estudios Picasso / Laura Bickford Productions / Section Eight
GÉNERO: Drama | Biográfico. Revolución Cubana
: http://www.imdb.com/title/tt0892255/






Biopic del famoso guerrillero y revolucionario Ernesto 'Che' Guevara, basado en su diario. Narra el periodo de la guerrilla en Sierra Maestra, bajo el mando de Fidel Castro, desde el desembarco del Gramma en diciembre de 1956, hasta la huida de Batista, presidente que gobernó Cuba con el beneplácito de los americanos desde 1952. En el Festival de Cine de Cannes se emitió íntegramente (cuatro 4 horas y media). En los cines comerciales se emite dividida en dos películas: "Che: El argentino" y "Guerrilla" (unos 140 minutos cada una).
























La pelicula NO tiene ninguna marca... solo colocamos el nombre de esta web en las capturas






Código:
General
Format                                   : Matroska
Format version                           : Version 2
File size                                : 3.30 GiB
Duration                                 : 2h 14mn
Overall bit rate                         : 3 516 Kbps
Movie name                               : www.club-hd.com
Encoded date                             : UTC 2013-04-16 02:32:32
Writing application                      : mkvmerge v5.7.0 ('The Whirlwind') built on Jul  8 2012 20:08:51
Writing library                          : libebml v1.2.3 + libmatroska v1.3.0

Video
ID                                       : 1
Format                                   : AVC
Format/Info                              : Advanced Video Codec
Format profile                           : High@L4.1
Format settings, CABAC                   : Yes
Format settings, ReFrames                : 9 frames
Codec ID                                 : V_MPEG4/ISO/AVC
Duration                                 : 2h 14mn
Bit rate                                 : 2 875 Kbps
Width                                    : 1 280 pixels
Height                                   : 534 pixels
Display aspect ratio                     : 2.40:1
Frame rate mode                          : Constant
Frame rate                               : 23.976 fps
Color space                              : YUV
Chroma subsampling                       : 4:2:0
Bit depth                                : 8 bits
Scan type                                : Progressive
Bits/(Pixel*Frame)                       : 0.175
Stream size                              : 2.64 GiB (80%)
Title                                    : www.club-hd.com
Writing library                          : x264 core 129 r2245 bc13772
Language                                 : Spanish
Default                                  : Yes
Forced                                   : No

Audio
ID                                       : 2
Format                                   : AC-3
Format/Info                              : Audio Coding 3
Mode extension                           : CM (complete main)
Format settings, Endianness              : Big
Codec ID                                 : A_AC3
Duration                                 : 2h 14mn
Bit rate mode                            : Constant
Bit rate                                 : 640 Kbps
Channel(s)                               : 6 channels
Channel positions                        : Front: L C R, Side: L R, LFE
Sampling rate                            : 48.0 KHz
Bit depth                                : 16 bits
Compression mode                         : Lossy
Stream size                              : 616 MiB (18%)
Title                                    : www.club-hd.com
Language                                 : Spanish
Default                                  : Yes
Forced                                   : No

Menu
00:00:00.000                             : en:Chapter 1
00:03:25.288                             : en:Chapter 2
00:05:22.030                             : en:Chapter 3
00:09:23.688                             : en:Chapter 4
00:10:42.392                             : en:Chapter 5
00:14:02.967                             : en:Chapter 6
00:15:57.165                             : en:Chapter 7
00:16:49.300                             : en:Chapter 8
00:18:47.543                             : en:Chapter 9
00:22:29.348                             : en:Chapter 10
00:23:53.098                             : en:Chapter 11
00:28:42.930                             : en:Chapter 12
00:31:23.840                             : en:Chapter 13
00:36:24.474                             : en:Chapter 14
00:40:07.196                             : en:Chapter 15
00:43:19.263                             : en:Chapter 16
00:48:04.090                             : en:Chapter 17
00:50:27.066                             : en:Chapter 18
00:52:46.163                             : en:Chapter 19
00:54:12.916                             : en:Chapter 20
00:56:56.705                             : en:Chapter 21
00:58:54.030                             : en:Chapter 22
01:02:05.013                             : en:Chapter 23
01:03:32.475                             : en:Chapter 24
01:06:39.162                             : en:Chapter 25
01:08:26.477                             : en:Chapter 26
01:11:32.955                             : en:Chapter 27
01:14:59.662                             : en:Chapter 28
01:17:21.053                             : en:Chapter 29
01:21:05.903                             : en:Chapter 30
01:25:22.409                             : en:Chapter 31
01:30:46.566                             : en:Chapter 32
01:35:26.429                             : en:Chapter 33
01:39:28.337                             : en:Chapter 34
01:42:05.995                             : en:Chapter 35
01:43:59.233                             : en:Chapter 36
01:47:10.132                             : en:Chapter 37
01:51:38.692                             : en:Chapter 38
01:55:13.907                             : en:Chapter 39
01:57:36.633                             : en:Chapter 40
02:03:02.709                             : en:Chapter 41
02:06:48.768                             : en:Chapter 42








Enlaces de Mega y Fireload solo disponibles para Miembros VIP

Compra tu Membresía VIP y apoya a Club-HD!

ATENCIÓN! Tenemos TODO el material de Club-HD disponible por Mega y Fireload, enlaces 100% activos y online hasta la fecha

Llévate tus cuentas Mega PRO II gratis con tu membresía VIP!
Todos los posts vivos con links de Mega y Fireload.
Todo el material de Club-HD desbloqueado y sin publicidad.

Click Aquí para más información.



Para ver este contenido oculto, debes dar click en una de las siguientes reacciones : Like Like, Love Love, Haha Haha, Wow Wow, Sad Sad, Angry Angry

 
Última edición por un moderador:

zacygal

Well-known member
Registro
3 Sep 2012
Mensajes
1.515
Reacciones
1.536
Puntos
113
Edad
49

Reputation:

no la había visto, gracias por traernos grandes producciones...
 

eljumachi

Well-known member
Miembro VIP
Registro
27 Ago 2012
Mensajes
2.174
Reacciones
339
Puntos
83

Reputation:

a ver que tal , he oído bastante acerca de este señor, pero no la película asi que muchas gracias R21 por estas producciones de la vida real. saludos
 

edward1080

Well-known member
Registro
23 Nov 2012
Mensajes
1.013
Reacciones
137
Puntos
63
Edad
34

Reputation:

Esta película no la he visto aun, veremos que tal esta!! buen aporte Che! Tb_up3, Gracias Revolver!
 

Usuarios Que Están Viendo Este Tema (Total: 1, Miembros: 0, Invitados: 1)

Arriba