Che: Part Two (2008) m-720p BDRip Audio Latino (Drama)

Maestro Revolver

Well-known member
Miembro del Staff
Administrador
Registro
9 Ago 2012
Mensajes
3.569
Reacciones
59.366
Puntos
113

Reputation:









TÍTULO ORIGINAL: Che: Guerrilla
AÑO: 2008
DURACIÓN: 140 min.
PAÍS: USA
DIRECTOR: Steven Soderbergh
GUIÓN: Peter Buchman, Steven Soderbergh (Autobiografía: Ernesto 'Che' Guevara)
REPARTO: Benicio del Toro, Franka Potente, Benjamin Bratt, Lou Diamond Phillips, Catalina Sandino Moreno, Demián Bichir, Óscar Jaenada, Rodrigo Santoro, Douglas J. Aguirre, Rob Alicea, Mariesé Alvarez, Carlos Bardem, Matt Damon, Joaquim de Almeida, Ramón Fernandez, Eduard Fernández, Jordi Mollá, Jesús Carroza, Cristian Mercado
PRODUCTORA: Coproducción USA-España; Focus Features / Wild Bunch / Morena Films / Estudios Picasso / Laura Bickford Productions / Section Eight
GÉNERO: Drama | Biográfico
: http://www.imdb.com/title/tt0374569/






Biopic del famoso guerrillero y revolucionario Ernesto 'Che' Guevara, basado en el diario personal del protagonista. En el Festival de Cine de Cannes se emitieron íntegramente, las cuatro horas y media. En los cines comerciales se emite en dos partes: "Che: El argentino" y "Guerrilla" (cada una de unos 140 minutos).
























La pelicula NO tiene ninguna marca... solo colocamos el nombre de esta web en las capturas






Código:
General
Format                                   : Matroska
Format version                           : Version 2
File size                                : 3.30 GiB
Duration                                 : 2h 15mn
Overall bit rate                         : 3 492 Kbps
Movie name                               : www.club-hd.com
Encoded date                             : UTC 2013-04-16 02:35:25
Writing application                      : mkvmerge v5.7.0 ('The Whirlwind') built on Jul  8 2012 20:08:51
Writing library                          : libebml v1.2.3 + libmatroska v1.3.0

Video
ID                                       : 1
Format                                   : AVC
Format/Info                              : Advanced Video Codec
Format profile                           : High@L4.1
Format settings, CABAC                   : Yes
Format settings, ReFrames                : 9 frames
Codec ID                                 : V_MPEG4/ISO/AVC
Duration                                 : 2h 15mn
Bit rate                                 : 2 851 Kbps
Width                                    : 1 280 pixels
Height                                   : 720 pixels
Display aspect ratio                     : 16:9
Frame rate mode                          : Constant
Frame rate                               : 23.976 fps
Color space                              : YUV
Chroma subsampling                       : 4:2:0
Bit depth                                : 8 bits
Scan type                                : Progressive
Bits/(Pixel*Frame)                       : 0.129
Stream size                              : 2.63 GiB (80%)
Title                                    : www.club-hd.com
Writing library                          : x264 core 129 r2245 bc13772
Language                                 : Spanish
Default                                  : Yes
Forced                                   : No

Audio
ID                                       : 2
Format                                   : AC-3
Format/Info                              : Audio Coding 3
Mode extension                           : CM (complete main)
Format settings, Endianness              : Big
Codec ID                                 : A_AC3
Duration                                 : 2h 15mn
Bit rate mode                            : Constant
Bit rate                                 : 640 Kbps
Channel(s)                               : 6 channels
Channel positions                        : Front: L C R, Side: L R, LFE
Sampling rate                            : 48.0 KHz
Bit depth                                : 16 bits
Compression mode                         : Lossy
Stream size                              : 620 MiB (18%)
Title                                    : www.club-hd.com
Language                                 : Spanish
Default                                  : Yes
Forced                                   : No

Menu
00:00:00.000                             : en:Chapter 1
00:03:28.750                             : en:Chapter 2
00:06:01.111                             : en:Chapter 3
00:08:00.689                             : en:Chapter 4
00:12:40.343                             : en:Chapter 5
00:15:39.856                             : en:Chapter 6
00:19:44.183                             : en:Chapter 7
00:22:13.749                             : en:Chapter 8
00:24:35.432                             : en:Chapter 9
00:26:33.842                             : en:Chapter 10
00:28:56.610                             : en:Chapter 11
00:32:25.360                             : en:Chapter 12
00:34:32.904                             : en:Chapter 13
00:37:10.562                             : en:Chapter 14
00:42:43.269                             : en:Chapter 15
00:44:15.987                             : en:Chapter 16
00:47:12.288                             : en:Chapter 17
00:48:05.966                             : en:Chapter 18
00:50:51.715                             : en:Chapter 19
00:54:28.807                             : en:Chapter 20
00:57:56.181                             : en:Chapter 21
00:59:29.649                             : en:Chapter 22
01:02:36.836                             : en:Chapter 23
01:06:22.478                             : en:Chapter 24
01:08:19.178                             : en:Chapter 25
01:10:34.313                             : en:Chapter 26
01:13:39.165                             : en:Chapter 27
01:15:46.876                             : en:Chapter 28
01:18:01.802                             : en:Chapter 29
01:19:54.248                             : en:Chapter 30
01:21:32.554                             : en:Chapter 31
01:24:08.168                             : en:Chapter 32
01:26:41.446                             : en:Chapter 33
01:30:05.692                             : en:Chapter 34
01:33:03.453                             : en:Chapter 35
01:36:19.983                             : en:Chapter 36
01:38:52.009                             : en:Chapter 37
01:44:06.991                             : en:Chapter 38
01:51:01.196                             : en:Chapter 39
01:52:59.022                             : en:Chapter 40
01:55:15.700                             : en:Chapter 41
01:58:33.398                             : en:Chapter 42
02:02:55.159                             : en:Chapter 43
02:04:48.856                             : en:Chapter 44








Enlaces de Mega y Fireload solo disponibles para Miembros VIP

Compra tu Membresía VIP y apoya a Club-HD!

ATENCIÓN! Tenemos TODO el material de Club-HD disponible por Mega y Fireload, enlaces 100% activos y online hasta la fecha

Llévate tus cuentas Mega PRO II gratis con tu membresía VIP!
Todos los posts vivos con links de Mega y Fireload.
Todo el material de Club-HD desbloqueado y sin publicidad.

Click Aquí para más información.



Para ver este contenido oculto, debes dar click en una de las siguientes reacciones : Like Like, Love Love, Haha Haha, Wow Wow, Sad Sad, Angry Angry

 
Última edición por un moderador:

zacygal

Well-known member
Registro
3 Sep 2012
Mensajes
1.515
Reacciones
1.536
Puntos
113
Edad
49

Reputation:

La parte 1 y 2 en minutos, Revolver se agradece ...
 

Lug

Well-known member
Registro
24 Oct 2012
Mensajes
1.691
Reacciones
37
Puntos
48
Edad
62

Reputation:

Desc_g_
la segunda parte.....
 

edward1080

Well-known member
Registro
23 Nov 2012
Mensajes
1.013
Reacciones
137
Puntos
63
Edad
34

Reputation:

Vaya tiene Dos partes Tb_up3 ...se ve interesante Maestro Revolver, siempre con aportes únicos!...gracias!
 

Claudia

New member
Súper Moderador
Registro
28 Ago 2012
Mensajes
2.288
Reacciones
2.928
Puntos
0
Edad
48
Ubicación
EN MI MUNDO REAL...

Reputation:

La vi....cada cual su opinion pero al gran Che no se lo pude representar!!! una peli para disernir, gracias Master...Muchas Gracias como siempre!!!Tb_up3
 

elgrandario

Well-known member
Registro
29 Ago 2012
Mensajes
1.006
Reacciones
147
Puntos
63
Ubicación
Lima, Perú

Reputation:

buenísimo! siempre es bueno saber cuál es la opinión de un cineasta sobre un gran luchador social! muchas gracias!
 

Usuarios Que Están Viendo Este Tema (Total: 1, Miembros: 0, Invitados: 1)

Arriba