Chernobyl Diaries (2012) m-720p Dual Latino-Inglés [Subt. Esp-Ing] (Terror)

Maestro Revolver

Administrador
Registro
9 Ago 2012
Mensajes
3.157
Reacciones (ptje)
55.041


Chernobyl-Diaries.jpg




FICHA_TECNICA.png


TÍTULO ORIGINAL: Chernobyl Diaries
AÑO: 2012
DURACIÓN: 90 min.
PAÍS: USA
DIRECTOR: Brad Parker
GUIÓN: Oren Peli, Carey Van Dyke, Shane Van Dyke
REPARTO: Jesse McCartney, Jonathan Sadowski, Nathan Phillips, Olivia Dudley, Devin Kelley, Ingrid Bolsø Berdal, Dimitri Diatchenko
PRODUCTORA: FilmNation Entertainment
GÉNERO: Terror. Thriller
imdb-logo.png
http://www.imdb.com/title/tt1991245/



SINOPSIS.png


Un grupo de amigos que están pasando las vacaciones en Europa van a a parar a Prypiat, una ciudad abandonada tras el accidente de la central nuclear de Chernobil; pero pronto se darán cuenta de que no están solos.




TRAILER.png






CAPTURAS.png


1.jpg


2.jpg


3.jpg


4.jpg


5.jpg


6.jpg


La pelicula NO tiene ninguna marca... solo colocamos el nombre de esta web en las capturas




DATOS_TECNICOS.png


Código:
General
Format                           : Matroska
Format version                   : Version 2
File size                        : 2.10 GiB
Duration                         : 1h 28mn
Overall bit rate                 : 3 404 Kbps
Movie name                       : www.club-hd.com
Encoded date                     : UTC 2012-10-06 23:56:04
Writing application              : mkvmerge v4.4.0 ('Die Wiederkehr') built on Oct 31 2010 21:52:48
Writing library                  : libebml v1.0.0 + libmatroska v1.0.0

Video
ID                               : 1
Format                           : AVC
Format/Info                      : Advanced Video Codec
Format profile                   : [email protected]
Format settings, CABAC           : Yes
Format settings, ReFrames        : 8 frames
Muxing mode                      : Header stripping
Codec ID                         : V_MPEG4/ISO/AVC
Duration                         : 1h 28mn
Bit rate                         : 2 504 Kbps
Nominal bit rate                 : 2 630 Kbps
Width                            : 1 280 pixels
Height                           : 690 pixels
Display aspect ratio             : 1.855
Frame rate                       : 23.976 fps
Color space                      : YUV
Chroma subsampling               : 4:2:0
Bit depth                        : 8 bits
Scan type                        : Progressive
Bits/(Pixel*Frame)               : 0.118
Stream size                      : 1.55 GiB (74%)
Title                            : www.club-hd.com
Writing library                  : x264 core 128 r2216 198a7ea
Language                         : English
Default                          : Yes
Forced                           : No

Audio #1
ID                               : 2
Format                           : AC-3
Format/Info                      : Audio Coding 3
Mode extension                   : CM (complete main)
Muxing mode                      : Header stripping
Codec ID                         : A_AC3
Duration                         : 1h 28mn
Bit rate mode                    : Constant
Bit rate                         : 384 Kbps
Channel(s)                       : 6 channels
Channel positions                : Front: L C R, Side: L R, LFE
Sampling rate                    : 48.0 KHz
Bit depth                        : 16 bits
Compression mode                 : Lossy
Delay relative to video          : 16s 0ms
Stream size                      : 243 MiB (11%)
Title                            : www.club-hd.com  >>  Latino
Language                         : Spanish
Default                          : Yes
Forced                           : No

Audio #2
ID                               : 3
Format                           : AC-3
Format/Info                      : Audio Coding 3
Mode extension                   : CM (complete main)
Muxing mode                      : Header stripping
Codec ID                         : A_AC3
Duration                         : 1h 28mn
Bit rate mode                    : Constant
Bit rate                         : 448 Kbps
Channel(s)                       : 6 channels
Channel positions                : Front: L C R, Side: L R, LFE
Sampling rate                    : 48.0 KHz
Bit depth                        : 16 bits
Compression mode                 : Lossy
Stream size                      : 283 MiB (13%)
Title                            : www.club-hd.com  >>  Ingles
Language                         : English
Default                          : No
Forced                           : No

Text #1
ID                               : 4
Format                           : UTF-8
Codec ID                         : S_TEXT/UTF8
Codec ID/Info                    : UTF-8 Plain Text
Language                         : Spanish
Default                          : No
Forced                           : No

Text #2
ID                               : 5
Format                           : UTF-8
Codec ID                         : S_TEXT/UTF8
Codec ID/Info                    : UTF-8 Plain Text
Language                         : English
Default                          : No
Forced                           : No




Descarga.png




google-drive-vip.png


Tenemos TODO el material de Club-HD disponible por Mega, enlaces 100% activos y online hasta la fecha

Llévate tus cuentas Mega PRO III gratis con tu membresía VIP!
Todos los posts vivos con links de Mega.
Todo el material de Club-HD desbloqueado y sin publicidad.

Obtén más información sobre nuestras Membresías VIP




MEGA.jpg

Tenemos TODO el material de Club-HD disponible por Mega, enlaces 100% activos y online hasta la fecha

Llévate tus cuentas Mega PRO III gratis con tu membresía VIP!
Todos los posts vivos con links de Mega.
Todo el material de Club-HD desbloqueado y sin publicidad.

Obtén más información sobre nuestras Membresías VIP


UPLOADED.TO_BANNER.png

Para ver este contenido oculto, debes dar click en el botón"Like", o cualquiera de las otras reacciones:

Me Gusta Me Gusta, Me Encanta Me Encanta, Jaja Jaja, Wow Wow, Triste Triste, Molesto Molesto

 
Última edición:
Esta no la alcance a er en el cine, y como me la recomendaron... Descargando, Gracias!!!
 
tremendaaaaaaaa peli , gracias nene BESTIA !!!!!:dplgar:
 
seeee la estaba esperando master R21! Se agradece compañero. :aplausos: :dplgar:
 
Hay que verla, pero parece buena pelicula ! Gracias por el Aporte !
 
Volver