Chinese Zodiac (2012) 720p BDRip Audio Inglés/Chino [Subt. Esp] (Acción. Aventura)

Maestro Revolver

Well-known member
Miembro del Staff
Administrador
Registro
9 Ago 2012
Mensajes
3.569
Reacciones
59.341
Puntos
113

Reputation:









TÍTULO ORIGINAL: Shi Er Sheng Xiao (Chinese Zodiac) (12 Chinese Zodiac / CZ12) (Armour of God 3)
AÑO: 2012
DURACIÓN: 120 min.
PAÍS: Hong Kong
DIRECTOR: Jackie Chan
GUIÓN: Jackie Chan
REPARTO: Jackie Chan, Kwone Sang-woo, Yao Xingtong, Kenny G, Zheng Wei, Laura Weissbecker, Pierre Boudard, Vincent Sze, Oliver Platt, Caitlin Dechelle, Christian Bachini, Cary Woodworth, Steven Dasz, Andrew Dasz, Chen Bo-lin, Daniel Wu, Shu Qi
PRODUCTORA: Coproducción Hong Kong-China;Emperor Classic Films / Emperor Dragon Movies / Emperor Motion Pictures
GÉNERO: Acción. Aventuras | Secuela
: http://www.imdb.com/title/tt1424310/






Asian Hawk lidera, en esta ocasión, un grupo de mercenarios para recuperar las cabezas de bronce de los 12 animales del Zodiaco Chino, saqueadas del Viejo Palacio de Verano por extranjeros en los años 1800. Ayudado por un estudiante chino y una dama parisina, Hawk no se detendrá ante nada para cumplir su misión.
























La pelicula NO tiene ninguna marca... solo colocamos el nombre de esta web en las capturas






Código:
General
Format                                   : Matroska
Format version                           : Version 2
File size                                : 4.90 GiB
Duration                                 : 2h 2mn
Overall bit rate                         : 5 709 Kbps
Movie name                               : www.club-hd.com
Encoded date                             : UTC 2013-03-09 13:27:49
Writing application                      : mkvmerge v5.7.0 ('The Whirlwind') built on Jul  8 2012 20:08:51
Writing library                          : libebml v1.2.3 + libmatroska v1.3.0

Video
ID                                       : 1
Format                                   : AVC
Format/Info                              : Advanced Video Codec
Format profile                           : High@L4.1
Format settings, CABAC                   : Yes
Format settings, ReFrames                : 5 frames
Codec ID                                 : V_MPEG4/ISO/AVC
Duration                                 : 2h 2mn
Bit rate                                 : 5 147 Kbps
Nominal bit rate                         : 5 500 Kbps
Width                                    : 1 280 pixels
Height                                   : 536 pixels
Display aspect ratio                     : 2.40:1
Frame rate mode                          : Constant
Frame rate                               : 24.000 fps
Color space                              : YUV
Chroma subsampling                       : 4:2:0
Bit depth                                : 8 bits
Scan type                                : Progressive
Bits/(Pixel*Frame)                       : 0.313
Stream size                              : 4.42 GiB (90%)
Title                                    : www.club-hd.com
Writing library                          : x264 core 129 r2230 1cffe9f
Language                                 : English
Default                                  : Yes
Forced                                   : No

Audio
ID                                       : 2
Format                                   : AC-3
Format/Info                              : Audio Coding 3
Mode extension                           : CM (complete main)
Format settings, Endianness              : Big
Codec ID                                 : A_AC3
Duration                                 : 2h 2mn
Bit rate mode                            : Constant
Bit rate                                 : 448 Kbps
Channel(s)                               : 6 channels
Channel positions                        : Front: L C R, Side: L R, LFE
Sampling rate                            : 48.0 KHz
Bit depth                                : 16 bits
Compression mode                         : Lossy
Stream size                              : 394 MiB (8%)
Title                                    : www.club-hd.com  >>  English / Chinese AC3
Language                                 : English
Default                                  : Yes
Forced                                   : No

Text
ID                                       : 3
Format                                   : UTF-8
Codec ID                                 : S_TEXT/UTF8
Codec ID/Info                            : UTF-8 Plain Text
Language                                 : Spanish
Default                                  : Yes
Forced                                   : No










Enlaces de Mega y Fireload solo disponibles para Miembros VIP

Compra tu Membresía VIP y apoya a Club-HD!

ATENCIÓN! Tenemos TODO el material de Club-HD disponible por Mega y Fireload, enlaces 100% activos y online hasta la fecha

Llévate tus cuentas Mega PRO II gratis con tu membresía VIP!
Todos los posts vivos con links de Mega y Fireload.
Todo el material de Club-HD desbloqueado y sin publicidad.

Click Aquí para más información.




Enlaces de Mega y Fireload solo disponibles para Miembros VIP

Compra tu Membresía VIP y apoya a Club-HD!

ATENCIÓN! Tenemos TODO el material de Club-HD disponible por Mega y Fireload, enlaces 100% activos y online hasta la fecha

Llévate tus cuentas Mega PRO II gratis con tu membresía VIP!
Todos los posts vivos con links de Mega y Fireload.
Todo el material de Club-HD desbloqueado y sin publicidad.

Click Aquí para más información.



Para ver este contenido oculto, debes dar click en una de las siguientes reacciones : Like Like, Love Love, Haha Haha, Wow Wow, Sad Sad, Angry Angry

 
Última edición:

eljumachi

Well-known member
Miembro VIP
Registro
27 Ago 2012
Mensajes
2.174
Reacciones
338
Puntos
83

Reputation:

Estas películas no deben faltar en esta pagina especial , Jackie Chan Actor comediante de las artes marciales y acróbata , Películas que nos hacen anclar a nuestros asientos por las divertidas y ocurrencias en cada actuación de sus cintas. Muy agradecido R21 saludos
 

gadagaca

New member
Registro
28 Ago 2012
Mensajes
485
Reacciones
15
Puntos
0

Reputation:

Gracias, recien la habia visto en sitios gringos, no pense que la tuvieran aqui tan rapido, excelente felicitaciones...
 

Usuarios Que Están Viendo Este Tema (Total: 1, Miembros: 0, Invitados: 1)

Arriba