Christmas With the Kranks (2004) 720p WEB-DL Dual Latino-Inglés [Subt. Esp] (Comedia)

Maestro Revolver

Administrador
Registro
9 Ago 2012
Mensajes
3.157
Reacciones (ptje)
55.208


Christmas-with-the-Kranks.jpg




FichaTecnica.jpg


TÍTULO ORIGINAL: Christmas With the Kranks
AÑO: 2004
DURACIÓN: 90 min.
PAÍS: USA
DIRECTOR: Joe Roth
GUIÓN: Chris Columbus (Novela: John Grisham)
REPARTO: Tim Allen, Jamie Lee Curtis, Dan Aykroyd, Jake Busey, M. Emmet Walsh, Cheech Marin
PRODUCTORA: Columbia Pictures
GÉNERO: Comedia | Navidad
imdb-logo.png
: http://www.imdb.com/title/tt0388419/




Sinopsis.jpg


Cuando su única hija adolescente se va de casa por primera vez, el matrimonio Krank decide "saltarse las Navidades" (ni regalos ni árbol...) y marcharse de vacaciones. Sin embargo, en el último momento su hija cambia de opinión y decide volver a casa. Entonces los Krank tendrán que ponerse afanosa y precipitadamente a preparar las fiestas navideñas.




Trailer.jpg






Capturas.jpg


1.jpg


2.jpg


3.jpg


4.jpg


5.jpg


6.jpg


La pelicula NO tiene ninguna marca... solo colocamos el nombre de esta web en las capturas




MediaInfo.jpg


Código:
General
Unique ID                                : 253451278385450036259033426333976004211 (0xBEACF0CE5858810A869B0FC5ED748673)
Complete name                            : G:\NLR-SENG-6\Descargas\2-A POSTERAR EL VIERNES\Christmas.With.The.Kranks.2004.720p.WEB-DL.H264-HDB [PublicHD]\Christmas With The Kranks (2004) 720p WEB-DL Dual321321\Christmas With The Kranks (2004) 720p WEB-DL Dual.mkv
Format                                   : Matroska
Format version                           : Version 2
File size                                : 3.35 GiB
Duration                                 : 1h 38mn
Overall bit rate                         : 4 850 Kbps
Movie name                               : www.club-hd.com
Encoded date                             : UTC 2013-12-03 01:50:40
Writing application                      : mkvmerge v5.7.0 ('The Whirlwind') built on Jul  8 2012 20:08:51
Writing library                          : libebml v1.2.3 + libmatroska v1.3.0

Video
ID                                       : 1
Format                                   : AVC
Format/Info                              : Advanced Video Codec
Format profile                           : [email protected]
Format settings, CABAC                   : No
Format settings, ReFrames                : 2 frames
Format settings, GOP                     : N=1
Codec ID                                 : V_MPEG4/ISO/AVC
Duration                                 : 1h 38mn
Bit rate                                 : 4 113 Kbps
Width                                    : 1 280 pixels
Height                                   : 532 pixels
Display aspect ratio                     : 2.40:1
Frame rate mode                          : Constant
Frame rate                               : 23.976 fps
Color space                              : YUV
Chroma subsampling                       : 4:2:0
Bit depth                                : 8 bits
Scan type                                : Progressive
Bits/(Pixel*Frame)                       : 0.252
Stream size                              : 2.84 GiB (85%)
Title                                    : www.club-hd.com
Language                                 : English
Default                                  : Yes
Forced                                   : No
Color primaries                          : BT.709
Transfer characteristics                 : BT.709
Matrix coefficients                      : BT.709

Audio #1
ID                                       : 2
Format                                   : AC-3
Format/Info                              : Audio Coding 3
Mode extension                           : CM (complete main)
Format settings, Endianness              : Big
Codec ID                                 : A_AC3
Duration                                 : 1h 38mn
Bit rate mode                            : Constant
Bit rate                                 : 256 Kbps
Channel(s)                               : 2 channels
Channel positions                        : Front: L R
Sampling rate                            : 48.0 KHz
Bit depth                                : 16 bits
Compression mode                         : Lossy
Stream size                              : 181 MiB (5%)
Title                                    : www.club-hd.com  >>  Latino
Language                                 : Spanish
Default                                  : Yes
Forced                                   : No

Audio #2
ID                                       : 3
Format                                   : AC-3
Format/Info                              : Audio Coding 3
Mode extension                           : CM (complete main)
Format settings, Endianness              : Big
Codec ID                                 : A_AC3
Duration                                 : 1h 38mn
Bit rate mode                            : Constant
Bit rate                                 : 384 Kbps
Channel(s)                               : 6 channels
Channel positions                        : Front: L C R, Side: L R, LFE
Sampling rate                            : 48.0 KHz
Bit depth                                : 16 bits
Compression mode                         : Lossy
Stream size                              : 272 MiB (8%)
Title                                    : www.club-hd.com  >>  Inglés
Language                                 : English
Default                                  : No
Forced                                   : No

Text
ID                                       : 4
Format                                   : UTF-8
Codec ID                                 : S_TEXT/UTF8
Codec ID/Info                            : UTF-8 Plain Text
Language                                 : Spanish
Default                                  : No
Forced                                   : No

Menu
00:00:00.000                             : en:1
00:03:14.000                             : en:2
00:06:44.000                             : en:3
00:11:30.000                             : en:4
00:12:59.000                             : en:5
00:16:19.000                             : en:6
00:20:06.000                             : en:7
00:22:46.000                             : en:8
00:26:41.000                             : en:9
00:29:24.000                             : en:10
00:32:32.000                             : en:11
00:37:06.000                             : en:12
00:41:35.000                             : en:13
00:45:57.000                             : en:14
00:48:59.000                             : en:15
00:51:02.000                             : en:16
00:54:30.000                             : en:17
00:57:04.000                             : en:18
01:01:57.000                             : en:19
01:04:37.000                             : en:20
01:06:31.000                             : en:21
01:10:53.000                             : en:22
01:14:18.000                             : en:23
01:17:04.000                             : en:24
01:19:58.000                             : en:25
01:22:27.000                             : en:26
01:24:37.000                             : en:27
01:29:10.000                             : en:28




Descarga.jpg



MEGA.jpg

Tenemos TODO el material de Club-HD disponible por Mega, enlaces 100% activos y online hasta la fecha

Llévate tus cuentas Mega PRO III gratis con tu membresía VIP!
Todos los posts vivos con links de Mega.
Todo el material de Club-HD desbloqueado y sin publicidad.

Obtén más información sobre nuestras Membresías VIP

1FICHIER-BANNER.png

Tenemos TODO el material de Club-HD disponible por Mega, enlaces 100% activos y online hasta la fecha

Llévate tus cuentas Mega PRO III gratis con tu membresía VIP!
Todos los posts vivos con links de Mega.
Todo el material de Club-HD desbloqueado y sin publicidad.

Obtén más información sobre nuestras Membresías VIP



UPLOADED_BANNER.png

Para ver este contenido oculto, debes dar click en el botón "Like", o cualquiera de las otras reacciones:

Me Gusta Me Gusta, Me Encanta Me Encanta, Jaja Jaja, Wow Wow, Triste Triste, Molesto Molesto


OPENLOAD.png

Para ver este contenido oculto, debes dar click en el botón "Like", o cualquiera de las otras reacciones:

Me Gusta Me Gusta, Me Encanta Me Encanta, Jaja Jaja, Wow Wow, Triste Triste, Molesto Molesto


google-drive.png

Para ver este contenido oculto, debes dar click en el botón "Like", o cualquiera de las otras reacciones:

Me Gusta Me Gusta, Me Encanta Me Encanta, Jaja Jaja, Wow Wow, Triste Triste, Molesto Molesto
CONTRASEÑA

Código:
www.club-hd.com
 
Última edición:
:aplausos:S_T1disfruto mas Hallowen que Navidad, pero para aquellos que aun tienen espiritu disfrutenlas :bsrs:

Boss, sos ungrande, tematica Navideña, pedidos del Top y no tan TopMlevol0cumplidos, estrenazos Sos lo Mas grande, MUCHAS GRACIA POR CADA POST:aplausos:
 
gracias revolver por la peli
 
Gracias Men EXCELENTE Aporte :aplausos: :aplausos: :dplgar: :aplausos: :dplgar: Tb_up3 Desc_g_ Tb_up3 :dplgar: :aplausos: :dplgar: :aplausos: :aplausos:
 
A Verla gracias chicos x la peli en este mes :p saludos!
 
Volver