Clash of the Titans (2010) 1080p BDRip Dual Latino-Ingles [Subt. Esp-Ing] (Fantástico. Acción)

Maestro Revolver

Well-known member
Miembro del Staff
Administrador
Registro
9 Ago 2012
Mensajes
3.569
Reacciones
59.350
Puntos
113

Reputation:








TÍTULO ORIGINAL: Clash of the Titans
AÑO: 2010
DURACIÓN: 106 min.
PAÍS: USA
DIRECTOR: Louis Leterrier
GUIÓN: Lawrence Kasdan, Travis Beacham, John Glenn, Phil Hay, Matt Manfredi
REPARTO: Sam Worthington, Mads Mikkelsen, Liam Neeson, Ralph Fiennes, Gemma Arterton, Liam Cunningham, Pete Postlethwaite, Alexa Davalos, Polly Walker, Nicholas Hoult, Jason Flemyng, Ashraf Barhom, Danny Huston, Luke Evans
PRODUCTORA: Warner Bros. Pictures / Legendary Pictures
GÉNERO: Fantástico. Acción. Aventuras | Remake. Antigua Grecia. Mitología. 3-D






Adaptación libre del mito de Perseo, hijo de Zeus, el padre de los dioses griegos. Perseo y su madre Dánae, son encerrados en un cofre por Acrisio, su abuelo, y arrojados al mar. Arrastrados por la corriente, llegan a la isla de Sérifos, donde Perseo alcanza la madurez. Cuando sepa cuál es la misión que le ha sido encomendada por el Destino, emprenderá un durísmo viaje, en el que tendrá que ir superando diversas pruebas. Remake del clásico de Desmond Davis de 1981.


























La pelicula NO tiene ninguna marca... solo coloque mi nombre de usuario en las capturas






General
Format : Matroska
Format version : Version 4 / Version 2
File size : 9.94 GiB
Duration : 1h 46mn
Overall bit rate : 13.4 Mbps
Movie name : www.club-hd.com
Encoded date : UTC 2014-11-16 18:45:49
Writing application : mkvmerge v7.1.0 ('Good Love') 64bit built on Jul 27 2014 13:06:55
Writing library : libebml v1.3.0 + libmatroska v1.4.1
DURATION : 01:34:29.305000000
NUMBER_OF_FRAMES : 726
NUMBER_OF_BYTES : 25733

Video
ID : 1
Format : AVC
Format/Info : Advanced Video Codec
Format profile : High@L4.1
Format settings, CABAC : Yes
Format settings, ReFrames : 5 frames
Codec ID : V_MPEG4/ISO/AVC
Duration : 1h 46mn
Bit rate : 11.0 Mbps
Width : 1 920 pixels
Height : 800 pixels
Display aspect ratio : 2.40:1
Frame rate mode : Constant
Frame rate : 23.976 fps
Color space : YUV
Chroma subsampling : 4:2:0
Bit depth : 8 bits
Scan type : Progressive
Bits/(Pixel*Frame) : 0.299
Stream size : 7.96 GiB (80%)
Title : www.club-hd.com
Writing library : x264 core 102 r1666 d058f37
Language : English
Default : Yes
Forced : No
DURATION : 01:46:07.528000000
NUMBER_OF_FRAMES : 152668
NUMBER_OF_BYTES : 8756950156

Audio #1
ID : 2
Format : AC-3
Format/Info : Audio Coding 3
Mode extension : CM (complete main)
Format settings, Endianness : Big
Codec ID : A_AC3
Duration : 1h 46mn
Bit rate mode : Constant
Bit rate : 448 Kbps
Channel(s) : 6 channels
Channel positions : Front: L C R, Side: L R, LFE
Sampling rate : 48.0 KHz
Bit depth : 16 bits
Compression mode : Lossy
Stream size : 340 MiB (3%)
Title : www.club-hd.com >> Latino AC3 5.1
Language : Spanish
Default : Yes
Forced : No

Audio #2
ID : 3
Format : AC-3
Format/Info : Audio Coding 3
Mode extension : CM (complete main)
Format settings, Endianness : Big
Codec ID : A_AC3
Duration : 1h 46mn
Bit rate mode : Constant
Bit rate : 448 Kbps
Channel(s) : 6 channels
Channel positions : Front: L C R, Side: L R, LFE
Sampling rate : 48.0 KHz
Bit depth : 16 bits
Compression mode : Lossy
Stream size : 340 MiB (3%)
Title : www.club-hd.com >> Inglés AC3 5.1
Language : English
Default : No
Forced : No

Audio #3
ID : 4
Format : DTS
Format/Info : Digital Theater Systems
Mode : 16
Format settings, Endianness : Big
Codec ID : A_DTS
Duration : 1h 46mn
Bit rate mode : Constant
Bit rate : 1 509 Kbps
Channel(s) : 6 channels
Channel positions : Front: L C R, Side: L R, LFE
Sampling rate : 48.0 KHz
Bit depth : 24 bits
Compression mode : Lossy
Stream size : 1.12 GiB (11%)
Title : www.club-hd.com >> Inglés DTS 5.1 @ 1510 kbps
Language : English
Default : No
Forced : No

Text
ID : 5
Format : UTF-8
Codec ID : S_TEXT/UTF8
Codec ID/Info : UTF-8 Plain Text
Title : www.club-hd.com
Language : Spanish
Default : No
Forced : No

Menu
00:00:00.000 : :00:00:00.000
00:05:39.839 : :00:05:39.839
00:10:07.607 : :00:10:07.607
00:14:25.239 : :00:14:25.239
00:20:58.632 : :00:20:58.632
00:26:06.148 : :00:26:06.148
00:31:57.916 : :00:31:57.916
00:38:19.547 : :00:38:19.547
00:47:02.820 : :00:47:02.820
00:52:45.621 : :00:52:45.621
00:59:20.307 : :00:59:20.307
01:07:02.852 : :01:07:02.852
01:13:17.268 : :01:13:17.268
01:19:37.314 : :01:19:37.314
01:26:01.114 : :01:26:01.114
01:31:52.090 : :01:31:52.090
01:35:23.176 : :01:35:23.176






Contraseña: www.club-hd.com










Enlaces de Mega y Fireload solo disponibles para Miembros VIP

Compra tu Membresía VIP y apoya a Club-HD!

ATENCIÓN! Tenemos TODO el material de Club-HD disponible por Mega y Fireload, enlaces 100% activos y online hasta la fecha

Llévate tus cuentas Mega PRO II gratis con tu membresía VIP!
Todos los posts vivos con links de Mega y Fireload.
Todo el material de Club-HD desbloqueado y sin publicidad.

Click Aquí para más información.




Enlaces de Mega y Fireload solo disponibles para Miembros VIP

Compra tu Membresía VIP y apoya a Club-HD!

ATENCIÓN! Tenemos TODO el material de Club-HD disponible por Mega y Fireload, enlaces 100% activos y online hasta la fecha

Llévate tus cuentas Mega PRO II gratis con tu membresía VIP!
Todos los posts vivos con links de Mega y Fireload.
Todo el material de Club-HD desbloqueado y sin publicidad.

Click Aquí para más información.




Enlaces de Mega y Fireload solo disponibles para Miembros VIP

Compra tu Membresía VIP y apoya a Club-HD!

ATENCIÓN! Tenemos TODO el material de Club-HD disponible por Mega y Fireload, enlaces 100% activos y online hasta la fecha

Llévate tus cuentas Mega PRO II gratis con tu membresía VIP!
Todos los posts vivos con links de Mega y Fireload.
Todo el material de Club-HD desbloqueado y sin publicidad.

Click Aquí para más información.



Para ver este contenido oculto, debes dar click en una de las siguientes reacciones : Like Like, Love Love, Haha Haha, Wow Wow, Sad Sad, Angry Angry


 
Última edición:

VincentVega

New member
Registro
27 Ago 2012
Mensajes
404
Reacciones
162
Puntos
0
Edad
32
Ubicación
Valinor

Reputation:

Qué gran aporte con tan poco peso. A bajar y agregar a la colección
 

Nosferatu

Well-known member
Súper Moderador
Registro
31 Ago 2012
Mensajes
2.275
Reacciones
1.362
Puntos
113
Edad
44
Ubicación
Welcome to Hell!!

Reputation:

Esta me la llevé del viejo CLUB-HD y esta Excelente.:dplgar:

GRACIAS R21. :dplgar::bsrs:
 

chavy_x12

Well-known member
Miembro VIP
Registro
28 Ago 2012
Mensajes
1.040
Reacciones
57
Puntos
48
Edad
36

Reputation:

muchas gracias :dplgar:
 

bruhd

New member
Registro
1 Sep 2012
Mensajes
8
Reacciones
0
Puntos
0

Reputation:

gracias.
 
Última edición por un moderador:

Usuarios Que Están Viendo Este Tema (Total: 1, Miembros: 0, Invitados: 1)

Arriba